Торренты   
 
 

 

Коралина в Стране Кошмаров 3Д / Coraline 3D (Генри Селик / Henry Selick) [2009 г., Фэнтези, драма, приключения, семейный, мультфильм, BDRip 720p] OverUnder / Вертикальная стереопара

Рейтинг 3D:
24 голосов
7.9
Рейтинг фильма:
23 голосов
8.1
 
Вы должны быть авторизированы,
чтобы ставить оценки


Коралина в Cтране Кошмаров 3Д / Coraline 3D- Год выпуска: 2009
Страна: США
Жанр: Фэнтези / драма / приключения / семейный / мультфильм
Продолжительность: 01:40:34
Перевод: Профессиональный (полное дублирование)
Русские субтитры: нет
Режиссер: Генри Селик / Henry Selick
В ролях: Дакота Фаннинг / Анна Штукатурова (Coraline Jones), Тери Хэтчер / Елена Соловьева (Mel Jones / Other Mother / Beldam), Дженнифер Сoндерс / Елена Бушуева (Miss April Spink / Other Spink), Доун Френч / Людмила Гнилова (Miss Miriam Forcible / Other Forcible), Кит Дэвид / Владимир Зайцев (The Cat), Джон Хуткман / Сергей Бурунов (Charlie Jones / Other Father), Роберт Бэйли мл. / Томас Шлеккер (Wyborne 'Wybie' Lovat), Иэн МакШейн / Алексей Колган (Mr. Sergei Alexander Bobinsky / Other Bobinsky)
Описание: Коралина, маленькая девочка попадает в другой мир, скрытый за секретной дверцей. Этот мир — ее альтернативная жизнь, которая не перестает ее радовать, все здесь хорошо, но до поры до времени. Однажды, она понимает что ее настоящим родителям за ее проделки угрожает смертельная опасность. Коралине придется найти выход из мира наполненного призраками в реальную жизнь…-Сэмпл
Качество: BDRip
Формат: MKV
Формат 3D: OverUnder / Вертикальная стереопара
Видео кодек: x264
Аудио кодек: AC3
Видео: MPEG4 Video (H264) 1280x1392 23.98fps 7959.41 Kbps
Аудио #1: Русский, Dolby AC3 48000Hz 6ch 384 Kbps (дублирование)
Аудио #2: Английский, Dolby AC3 48000Hz 6ch 448 Kbps

Скриншоты

MediaInfo

Format : Matroska
File size : 6.18 GiB
Duration : 1h 40mn
Overall bit rate : 8 790 Kbps
Encoded date : UTC 2010-07-05 01:57:20
Writing application : mkvmerge v4.1.0 ('Boiling Point') сборка от Jul 1 2010 14:37:28
Writing library : libebml v1.0.0 + libmatroska v1.0.0
Video
ID : 1
Format : AVC
Format/Info : Advanced Video Codec
Format profile : High@L4.1
Format settings, CABAC : Yes
Format settings, ReFrames : 4 frames
Muxing mode : Container profile=Unknown@4.1
Codec ID : V_MPEG4/ISO/AVC
Duration : 1h 40mn
Bit rate : 7 783 Kbps
Width : 1 280 pixels
Height : 1 392 pixels
Display aspect ratio : 0.923
Frame rate : 23.976 fps
Resolution : 8 bits
Colorimetry : 4:2:0
Scan type : Progressive
Bits/(Pixel*Frame) : 0.182
Stream size : 5.47 GiB (89%)
Writing library : x264 core 100 r1659 57b2e56
Encoding settings : cabac=1 / ref=4 / deblock=1:-1:-1 / analyse=0x3:0x113 / me=umh / subme=7 / psy=1 / psy_rd=1.00:0.15 / mixed_ref=1 / me_range=16 / chroma_me=1 / trellis=2 / 8x8dct=1 / cqm=0 / deadzone=21,11 / fast_pskip=1 / chroma_qp_offset=-3 / threads=6 / sliced_threads=0 / nr=0 / decimate=1 / interlaced=0 / constrained_intra=0 / bframes=6 / b_pyramid=0 / b_adapt=2 / b_bias=0 / direct=3 / weightb=1 / open_gop=0 / weightp=2 / keyint=250 / keyint_min=25 / scenecut=40 / intra_refresh=0 / rc_lookahead=40 / rc=crf / mbtree=1 / crf=18.0 / qcomp=0.60 / qpmin=10 / qpmax=51 / qpstep=4 / vbv_maxrate=50000 / vbv_bufsize=50000 / crf_max=0.0 / ip_ratio=1.40 / aq=2:1.00 / nal_hrd=none
Audio #1
ID : 2
Format : AC-3
Format/Info : Audio Coding 3
Format_Settings_ModeExtension : CM (complete main)
Codec ID : A_AC3
Duration : 1h 40mn
Bit rate mode : Constant
Bit rate : 384 Kbps
Channel(s) : 6 channels
Channel positions : Front: L C R, Side: L R, LFE
Sampling rate : 48.0 KHz
Stream size : 276 MiB (4%)
Language : Russian
Audio #2
ID : 3
Format : AC-3
Format/Info : Audio Coding 3
Format_Settings_ModeExtension : CM (complete main)
Codec ID : A_AC3
Duration : 1h 40mn
Bit rate mode : Constant
Bit rate : 448 Kbps
Channel(s) : 6 channels
Channel positions : Front: L C R, Side: L R, LFE
Sampling rate : 48.0 KHz
Stream size : 322 MiB (5%)
Остальные раздачи этого фильма (4)
Благодарности релизеру (2)

Торрент:

Статус:

Размер:

Зарегистрирован   [ 2010-07-05 08:28 ]

проверено

6.18 GB

 
 Мнение о фильме (6)





Спасибо,сказка ложь да в ней намек малой девочке урок, оочень красочный мультик
 

Смотрели с удовольствием.
Интересная фантазия у Севелика.
Очень интересно, особенно ее сад.
 

Фильм наверное понравится любителям японского мульттворчества. Слишком мрачно и бредово. Детям смотреть лично я бы не дал, мульт скорее для родителей, которым явно тыкают проблемами взаимоотношений с детьми. Несмотря на старания мультипликаторов и неплохое 3Д с некоторым количеством вылетов, фильм одноразовый - пересматривать не хочется.
 

Лучшее за последние несколько лет. Смотрели с женой раз пять.
 

Мульт очень понравился.И 3D тоже очень не полохое.
 

Спасибо за проекрасный релиз!!! Дети да и мы с удовольствием посмотрели!!!