Торренты   
 
 

 

Пирaты! Бaнда неудaчников / The Pirаtes! Bаnd of Мisfits [2012 г., BDrip, Anamorph OverUnder]

Рейтинг 3D:
13 голосов
7.3
Рейтинг фильма:
10 голосов
7.5
 
Вы должны быть авторизированы,
чтобы ставить оценки


Пирaты! Бaнда неудaчников / The Pirаtes! Bаnd of Мisfits --Год выпуска: 2012
Страна: США, Великобритания (Columbia Pictures, Sony Pictures Animation, Aardman Animations)
Жанр: Мультфильм, Комедия, Приключения, Семейный
Продолжительность: 01:28:04
Перевод: Профессиональный (дублированный) Русский и Украинский
Русские субтитры: нет--Режиссеры: Питер Лорд, Джефф Ньюитт / Peter Lord, Jeff Newitt
Сценарий: Гидеон Дефо
Продюсер: Джули Локхарт, Питер Лорд, Дэвид Спрокстон, ...
Оператор: Чарльз Коппинг, Фрэнк Пэссингем
Композитор: Теодор Шапиро
Художник: Норман Гарвуд, Сара Холдрен, Фил Льюис, ...
Монтаж: Джастин Криш--Роли озвучивали / Дублировали:

Пиратский Капитан - Хью Грант / Илья Хвостиков
Пират с шарфом - Мартин Фриман
Королева Виктория - Имелда Стонтон
Чарльз Дарвин - Дэвид Теннант / Леонид Барац
Чёрный Беллами - Джереми Пивен / Камиль Ларин
Катласс Лиз - Сальма Хайек
Гастингс "Деревянная Нога" - Ленни Генри / Пётр Иващенко
Король пиратов - Брайан Блессид
Пират-альбинос - Антон Ельчин / Диомид Виноградов
Пират с подагрой - Брендан Глисон
Фигуристый пират - Эшли Дженсен
Пират, любящий закаты и котят - Эл Рокер
Адмирал Коллингвуд - Майк Купер
Скарлетт Морган - Дэвид Шнайдер
--Описание:
Экранизация первой книги из серии романов писателя Гидеона Дефо, рассказывающих о банде незадачливых пиратов. В первой части пираты прибывают в Лондон, где знакомятся с молодым Чарльзом Дарвином и говорящим шимпанзе по имени Мистер Бобо, а также столкнутся с врагами, которые хотят их уничтожить.

Знаете ли вы, что...:

  • В производстве фильма вместо пластилина используется технология «Rapid Prototype». Детали лицевой анимации печатались на специальных 3D-принтерах и раскрашивались вручную.
  • Питер Лорд впервые прочитал книгу Гидеона Дефо «Пираты: Банда неудачников» после очередного мозгового штурма в студии Aardman. На стол книгу положил Джим Кэмпбелл. Питер взял книгу в руки, пролистал, зачитался и рассмеялся в голос.
  • Над фильмом работало 525 человек, включая 33 аниматоров. Съемочная группа состояла из 41 человека. Съемки велись в четырех павильонах.
  • Финальный вариант корабля был собран вручную и насчитывал 44 569 самостоятельных элементов. Модель весила 349 килограмм и была 4,2 метра в длину и 4,5 метров в высоту. На сборку ушло около 5000 часов.
  • Когда потребовалось перевезти модель корабля в другой павильон, рабочим пришлось озадачиться тем, как протиснуть эдакую махину сквозь весьма узкие коридоры. С огромным трудом огибая углы и делая все возможное, чтобы хрупкая конструкция не перевернулась, «бурлаки» добрались до последних двустворчатых дверей, ведущих в павильон… и выяснили, что у корабля слишком длинная мачта. Рабочие решили, что возвращение обратно той же дорогой «смерти подобно», взяли «болгарку» и выпилили в дверном проеме бойницу требуемой величины!
  • В сокровищнице королевы Виктории хранится 400 000 золотых монет. Реквизиторы Aardman изготовили более 220 000 различных статичных и динамичных предметов, чтобы украсить различные локации.
  • Корабль состоит из двух независимых частей, а украшающая нос фигура является наполовину мужской, наполовину женской. На корабле есть два отсека, о которых стоит упомянуть особо – каюта Пиратского Капитана и его ванная комната. При ближайшем рассмотрении можно увидеть довольно странные элементы декорации, которыми пираты укрепили свой корабль – клюшку для крикета, черенок метлы и многое другое.
  • На корме корабля укреплена табличка, которая гласит: «Укачало – включай сирену!»
  • Аниматоры симулировали речь героев при помощи специальных губных накладок. У каждого персонажа был готовый набор губ, сложенных в ту или иную гримасу, в соответствии с произносимыми звуками. К голове накладки крепились при помощи магнитов. Губами и головами персонажей занимались специалисты одного отдела. Губные накладки разрабатывались на компьютере, а затем отливались из резины. За время работы было создано 6818 губных накладок. 1364 из них предназначались Пиратскому Капитану. Для передачи звуков, составлявших речь, использовалось 257 накладок. Каждая накладка разрабатывалась на компьютере, а затем «распечатывалась» на принтере 3D Rapid Prototyping. Губы королевы Виктории оказались самыми «трудоемкими», поскольку перед каждым дублем на них приходилось наносить новый слой помады.
  • Для основной пиратской команды было создано 140 наборов ресниц.
  • Над фильмом работало 70 кукольников, которые создали 250 кукол. В их число входят 9 пиратов основной команды, 23 пирата на заднем плане, 18 ученых на заднем плане, 55 несущественных персонажей. Всего в картине задействовано 112 персонажей.
  • Было сделано несколько идентичных копий каждой из кукол, с тем, чтобы «актеры» могли играть на разных площадках одновременно. Для этого перед окраской с каждой из частей каждой из кукол снимали форму, из которой впоследствии отливали новые «органы», абсолютно идентичные оригиналу. Как правило, чем чаще кукла появляется на экране, тем больше ее копий нужно создать. Для звезды фильма Капитана Пиратов было собрано 14 «дублеров». Не говоря уже о том, что «актер» имел 6 одинаковых костюмов на непредвиденный случай.
  • Наброски персонажей передавались скульпторам, которые лепили фигурки героев. После того, как из нескольких вариантов был утвержден один, вылепливалась еще одна фигурка, которая разделялась на части. Они раскрашивались отдельно, затем кукла вновь собиралась воедино. «Скелетом» каждой куклы является проволочный каркас с шарнирами в местах сгибов. Кукла может гнуться точно так же, как и живой человек.
  • У Капитана Пиратов было 17 различных «донорских органов». На создание первой полностью готовой куклы (включая окраску и одежду) Капитаном Пиратов ушло шесть месяцев. На разработку одной только бороды Капитана ушел год.
За исходник спасибо , АДмин и 3D4ALL!!!Премьера: 28 марта 2012 (26 апреля 2012)
Бюджет: $55 000 000
Кассовые сборы: $115 925 820

Проверено на встроенном плейере ТВ LG 42LW4500
--Качество: BDrip
Контейнер: MKV
Формат 3D: Anamorph OverUnder / Вертикальная анаморфная стереопара
Порядок ракурсов: левый ракурс первый
Видео кодек: x264
Аудио кодек: AC3-Видео: AVC / 23,976 fps / 1920х1080p / 8428 Kbps
Аудио:
#1 - Русский / AC3 / 48 KHz / 5.1 ch / 448 Kbps
#2 - Украинский / AC3 / 48 KHz / 5.1 ch / 448 Kbps
#3 - Английский / AC3 / 48 KHz / 5.1 ch / 640 Kbps
Субтитры: Отсутствуют

MediaInfo

Код:
Общее
Уникальный идентификатор                 : 189060282105277846089687679747634797295 (0x8E3BAF9486CBF204896318BE08849AEF)
Полное имя                               : D:\3D-RuGroup\Мультфильмы\ThePirаtes.BаndOfМisfits.3D.2012.BD3DRip.Half.OU.x264.AC3.3D-RuGroup.mkv
Формат                                   : Matroska
Версия формата                           : Version 2
Размер файла                             : 6,26 Гбайт
Продолжительность                        : 1 ч. 28 м.
Общий поток                              : 10,2 Мбит/сек
Название фильма                          : The Pirаtes! Bаnd of Мisfits release by 3D-RuGroup
Дата кодирования                         : UTC 2012-08-11 07:55:23
Программа кодирования                    : mkvmerge v3.4.0 ('Rapunzel') сборка от May 15 2010 09:38:20
Библиотека кодирования                   : libebml v0.8.0 + libmatroska v0.9.0
Видео
Идентификатор                            : 1
Формат                                   : AVC
Формат/Информация                        : Advanced Video Codec
Профиль формата                          : High@L4.1
Параметр CABAC формата                   : Да
Параметр ReFrames формата                : 4 кадра
Идентификатор кодека                     : V_MPEG4/ISO/AVC
Продолжительность                        : 1 ч. 28 м.
Битрейт                                  : 8428 Кбит/сек
Ширина                                   : 1920 пикселей
Высота                                   : 1080 пикселей
Соотношение сторон                       : 16:9
Частота кадров                           : 23,976 кадра/сек
Цветовое пространство                    : YUV
Субдискретизация насыщенности            : 4:2:0
Битовая глубина                          : 8 бит
Тип развёртки                            : Прогрессивная
Бит/(Пиксели*Кадры)                      : 0.170
Размер потока                            : 5,19 Гбайт (83%)
Заголовок                                : The Pirаtes! Bаnd of Мisfits rip by elephant aka itsamna
Библиотека кодирования                   : x264 core 116 r2074 2641b9e
Настройки программы                      : cabac=1 / ref=4 / deblock=1:-3:-3 / analyse=0x3:0x133 / me=umh / subme=9 / psy=1 / psy_rd=1.00:0.15 / mixed_ref=1 / me_range=32 / chroma_me=1 / trellis=2 / 8x8dct=1 / cqm=0 / deadzone=21,11 / fast_pskip=0 / chroma_qp_offset=-3 / threads=3 / sliced_threads=0 / nr=0 / decimate=1 / interlaced=0 / bluray_compat=0 / constrained_intra=0 / bframes=7 / b_pyramid=2 / b_adapt=2 / b_bias=0 / direct=3 / weightb=1 / open_gop=0 / weightp=2 / keyint=250 / keyint_min=23 / scenecut=40 / intra_refresh=0 / rc_lookahead=60 / rc=crf / mbtree=1 / crf=17.0 / qcomp=0.90 / qpmin=0 / qpmax=69 / qpstep=4 / vbv_maxrate=50000 / vbv_bufsize=50000 / crf_max=0.0 / nal_hrd=none / ip_ratio=1.40 / aq=1:0.70
Default                                  : Да
Forced                                   : Нет
Аудио #1
Идентификатор                            : 2
Формат                                   : AC-3
Формат/Информация                        : Audio Coding 3
Расширение режима                        : CM (complete main)
Идентификатор кодека                     : A_AC3
Продолжительность                        : 1 ч. 28 м.
Вид битрейта                             : Постоянный
Битрейт                                  : 448 Кбит/сек
Каналы                                   : 6 каналов
Расположение каналов                     : Front: L C R, Side: L R, LFE
Частота                                  : 48,0 КГц
Битовая глубина                          : 16 бит
Метод сжатия                             : С потерями
Размер потока                            : 282 Мбайт (4%)
Заголовок                                : Dub
Язык                                     : Russian
Default                                  : Да
Forced                                   : Нет
Аудио #2
Идентификатор                            : 3
Формат                                   : AC-3
Формат/Информация                        : Audio Coding 3
Расширение режима                        : CM (complete main)
Идентификатор кодека                     : A_AC3
Продолжительность                        : 1 ч. 28 м.
Вид битрейта                             : Постоянный
Битрейт                                  : 448 Кбит/сек
Каналы                                   : 6 каналов
Расположение каналов                     : Front: L C R, Side: L R, LFE
Частота                                  : 48,0 КГц
Битовая глубина                          : 16 бит
Метод сжатия                             : С потерями
Размер потока                            : 282 Мбайт (4%)
Заголовок                                : Dub
Язык                                     : Ukrainian
Default                                  : Нет
Forced                                   : Нет
Аудио #3
Идентификатор                            : 4
Формат                                   : AC-3
Формат/Информация                        : Audio Coding 3
Расширение режима                        : CM (complete main)
Идентификатор кодека                     : A_AC3
Продолжительность                        : 1 ч. 28 м.
Вид битрейта                             : Постоянный
Битрейт                                  : 640 Кбит/сек
Каналы                                   : 6 каналов
Расположение каналов                     : Front: L C R, Side: L R, LFE
Частота                                  : 48,0 КГц
Битовая глубина                          : 16 бит
Метод сжатия                             : С потерями
Размер потока                            : 403 Мбайт (6%)
Язык                                     : English
Default                                  : Нет
Forced                                   : Нет
Меню
00:00:00.000                             : :01
00:08:38.685                             : :02
00:15:13.663                             : :03
00:20:32.440                             : :04
00:27:06.708                             : :05
00:33:08.987                             : :06
00:37:25.493                             : :07
00:42:05.440                             : :08
00:47:28.179                             : :09
00:51:56.196                             : :10
00:56:41.523                             : :11
01:01:10.208                             : :12
01:07:12.487                             : :13
01:11:54.185                             : :14
01:16:23.287                             : :15
01:19:17.670                             : :16

Скриншоты

Остальные раздачи этого фильма (4)
Благодарности релизеру (6)

Торрент:

Статус:

Размер:

Зарегистрирован   [ 2012-08-11 12:53 ]

проверено

6.26 GB