Торренты   
 
 


London 2012. Olympics games. Closing ceremony [2012 г., Anamorph SideBySide] [2012 г., SideBySide]

Рейтинг 3D:
1 голосов
6.0
Рейтинг фильма:
Пока никто не голосовал
 
Вы должны быть авторизированы,
чтобы ставить оценки


London 2012. Olympics games. Closing ceremony [2012 г., Anamorph SideBySide]
Год выпуска: 2012
Страна: Великобритания
Жанр: Спорт, шоу, документальный
Продолжительность: 0.58 + 1.07 + 1.11
Язык:Шекспира
Формат 3d: SideBySide
Порядок ракурсов: Параллельная пара
Режиссер:Ким Гэвин (Kim Gavin)
Описание: На Олимпийском стадионе в британской столице прошло яркое представление, приуроченное церемонии закрытия ХХХ летних Олимпийских игр.
Церемонию закрытия Олимпийских игр в Лондоне наблюдали 180 тысяч зрителей на стадионе и 26 миллионов телезрителей.
Независимые критики назвали церемонию закрытия Игр "чудаковатым недоумением",
при этом, однако, отметили, что скучно не было. Напротив, было "бесстыдно весело".
А фейерверк завершивший церемонию закрытия Игр, признали самым зрелищным,
которые Британия когда-либо видела.
Стандартно - 3 части:
Вступление, апофегей и финал с фейерверком и раздачей слонов (в смысле лепестков).
Заметки на полях:Праздничные олимпийские церемонии обошлись в 81 млн фунтов (126 млн долларов).
Обеспечение безопасности игр стоило 553 млн фунтов (860 млн долларов).
Дорог нынче овёс, не укупишь...(((
PS: Всем приятного просмотра.

MI

Полное имя :Closing Ceremony 2012 Olympics 1 3D SBS.divx
Формат : AVI
Формат/Информация : Audio Video Interleave
Размер файла : 1,40 Гбайт
Продолжительность : 58 м.
Общий поток : 3451 Кбит/сек
Видео
Идентификатор : 0
Формат : MPEG-4 Visual
Параметр BVOP формата : 1
Параметр QPel формата : Нет
Параметр GMC формата : Без точки перехода
Параметр матрицы формата : Default (H.263)
Режим смешивания : Сжатый битовый поток
Идентификатор кодека : DX50
Идентификатор кодека/Подсказка : DivX 5
Продолжительность : 58 м.
Битрейт : 3313 Кбит/сек
Ширина : 1280 пикселей
Высота : 720 пикселей
Соотношение сторон : 16:9
Частота кадров : 25,000 кадров/сек
Цветовое пространство : YUV
Субдискретизация насыщенности : 4:2:0
Битовая глубина : 8 бит
Тип развёртки : Прогрессивная
Метод сжатия : С потерями
Бит/(Пиксели*Кадры) : 0.144
Размер потока : 1,35 Гбайт (96%)
Заголовок : Video
Библиотека кодирования : DivX 3330
Аудио
Идентификатор : 1
Формат : MPEG Audio
Версия формата : Version 1
Профиль формата : Layer 3
Режим : Joint stereo
Расширение режима : MS Stereo
Идентификатор кодека : 55
Идентификатор кодека/Подсказка : MP3
Продолжительность : 58 м.
Вид битрейта : Постоянный
Битрейт : 128 Кбит/сек
Каналы : 2 канала
Частота : 44,1 КГц
Метод сжатия : С потерями
Размер потока : 53,3 Мбайт (4%)
Выравнивание : Разделение по промежуткам
Продолжительность промежутка : 40 мс. (1,00 видеокадр)
Время предзагрузки промежутка : 500 мс.
Заголовок : Audio
Полное имя :Closing Ceremony 2012 Olympics 2 3D SBS.divx
Формат : AVI
Формат/Информация : Audio Video Interleave
Размер файла : 1,63 Гбайт
Продолжительность : 1 ч. 7 м.
Общий поток : 3451 Кбит/сек
Видео
Идентификатор : 0
Формат : MPEG-4 Visual
Параметр BVOP формата : 1
Параметр QPel формата : Нет
Параметр GMC формата : Без точки перехода
Параметр матрицы формата : Default (H.263)
Режим смешивания : Сжатый битовый поток
Идентификатор кодека : DX50
Идентификатор кодека/Подсказка : DivX 5
Продолжительность : 1 ч. 7 м.
Битрейт : 3313 Кбит/сек
Ширина : 1280 пикселей
Высота : 720 пикселей
Соотношение сторон : 16:9
Частота кадров : 25,000 кадров/сек
Цветовое пространство : YUV
Субдискретизация насыщенности : 4:2:0
Битовая глубина : 8 бит
Тип развёртки : Прогрессивная
Метод сжатия : С потерями
Бит/(Пиксели*Кадры) : 0.144
Размер потока : 1,56 Гбайт (96%)
Заголовок : Video
Библиотека кодирования : DivX 3330
Аудио
Идентификатор : 1
Формат : MPEG Audio
Версия формата : Version 1
Профиль формата : Layer 3
Режим : Joint stereo
Идентификатор кодека : 55
Идентификатор кодека/Подсказка : MP3
Продолжительность : 1 ч. 7 м.
Вид битрейта : Постоянный
Битрейт : 128 Кбит/сек
Каналы : 2 канала
Частота : 44,1 КГц
Метод сжатия : С потерями
Размер потока : 61,8 Мбайт (4%)
Выравнивание : Разделение по промежуткам
Продолжительность промежутка : 40 мс. (1,00 видеокадр)
Время предзагрузки промежутка : 500 мс.
Заголовок : Audio
Полное имя : H:\Olimpics II\Closing Ceremony 2012 Olympics 3 3D SBS.divx
Формат : AVI
Формат/Информация : Audio Video Interleave
Размер файла : 1,72 Гбайт
Продолжительность : 1 ч. 11 м.
Общий поток : 3451 Кбит/сек
Видео
Идентификатор : 0
Формат : MPEG-4 Visual
Параметр BVOP формата : 1
Параметр QPel формата : Нет
Параметр GMC формата : Без точки перехода
Параметр матрицы формата : Default (H.263)
Режим смешивания : Сжатый битовый поток
Идентификатор кодека : DX50
Идентификатор кодека/Подсказка : DivX 5
Продолжительность : 1 ч. 11 м.
Битрейт : 3313 Кбит/сек
Ширина : 1280 пикселей
Высота : 720 пикселей
Соотношение сторон : 16:9
Частота кадров : 25,000 кадров/сек
Цветовое пространство : YUV
Субдискретизация насыщенности : 4:2:0
Битовая глубина : 8 бит
Тип развёртки : Прогрессивная
Метод сжатия : С потерями
Бит/(Пиксели*Кадры) : 0.144
Размер потока : 1,65 Гбайт (96%)
Заголовок : Video
Библиотека кодирования : DivX 3330
Аудио
Идентификатор : 1
Формат : MPEG Audio
Версия формата : Version 1
Профиль формата : Layer 3
Режим : Joint stereo
Расширение режима : MS Stereo
Идентификатор кодека : 55
Идентификатор кодека/Подсказка : MP3
Продолжительность : 1 ч. 11 м.
Вид битрейта : Постоянный
Битрейт : 128 Кбит/сек
Каналы : 2 канала
Частота : 44,1 КГц
Метод сжатия : С потерями
Размер потока : 65,3 Мбайт (4%)
Выравнивание : Разделение по промежуткам
Продолжительность промежутка : 40 мс. (1,00 видеокадр)
Время предзагрузки промежутка : 500 мс.
Заголовок : Audio

Скриншоты






Благодарности релизеру (4)

Торрент:

Статус:

Размер:

Зарегистрирован   [ 2012-09-12 08:20 ]

проверено

4.75 GB

 
 Мнение о фильме (3)





М-да шоу отличное, но звук интершумом с комментаторами, что для спортивных трансляций само собой разумеющееся, тут как то мне не понравилось, завидую кто был на сём празднике и мог воочию видеть и слышать...)))
 

спасибо за раздачу, но звук к сожалению ужасный, ничего не разобрать, создается впечатление, что главное, что слышно это только комментаторы и записывалось через их микрофон. Ощущение если бы стояли не в самом стадионе, а где то рядом недалеко.
 

а мне и картинка не понравилась - сильно мутная и блеклая цветопередача для таких объёмов файлов... да или даже по сравнению с Церемонией открытия.... про звук всё написано выше.
А зрелище, конечно, потрясающее, и спасибо огромное за этот релиз... в другом качестве не нашёл нигде