Торренты   
 
 


Чудаки 3D / Jackass 3D (Джефф Треймейн) [2010 г., Anamorph OverUnder]

Рейтинг 3D:
17 голосов
5.6
Рейтинг фильма:
21 голосов
4.9
 
Вы должны быть авторизированы,
чтобы ставить оценки


Чудаки 3D / Jackass 3D
Год выпуска: 2010
Страна: США
Жанр: Комедия, документальный
Продолжительность: 01:45:44
Перевод: Профессиональный (полное дублирование)
Режиссер: Джефф Треймейн
В ролях: Джонни Ноксвилл, Бэм Марджера, Стив-О, Крис Понтиус, Джейсон Акуна, Райан Данн, Престон Лэси, Эрен МакГехи, Дэйв Инглэнд, Джон Тейлор
Описание: Скандальная, саркастическая, грубая и абсолютно сумасбродная команда Джонни Ноксвила опять готова шокировать, смешить и срывать крышу, и в этот раз они удивят еще больше. Теперь каждый может стать почти соучастником событий, поскольку наблюдать за выходками чудаков можно будет в формате 3D. Фильм состоит из ряда экстремальных трюков, нерядовых шуток и безумных экспериментов, — все это испытает на собственной шкуре эта безумная компания. Никогда не знаешь — плакать или смеяться от их выходок, ведь они демонстрируют то, что каждый тайком хотел сделать, но боялся попробовать.
Формат 3d: Anamorph OverUnder
Видео: MPEG-4 AVC, 18.4 Мбит/с, 1920x1080, 23.976 кадра/с
Аудио: Русский (AC3, 6 ch, 640 Кбит/с), английский (DTS, 6 ch, 1510 Кбит/с)
Субтитры: Русские

Скриншоты



Инфо файл

Общее
Уникальный идентификатор : 200173831327633544040663083321738665539 (0x969813DC85D65B2189DD2A5705581E43)
Полное имя : G:\Кино3Д\Chudaki.3D.2011.x264.BDRip.1080p.3DRip.by.Kinozal.tv.mkv
Формат : Matroska
Версия формата : Version 2
Размер файла : 15,5 Гбайт
Продолжительность : 1 ч. 45 м.
Режим общего битрейта : Переменный
Общий поток : 21,0 Мбит/сек
Название фильма : riper-3DRip
Дата кодирования : UTC 2012-08-17 16:25:34
Программа кодирования : mkvmerge v3.4.0 ('Rapunzel') сборка от May 15 2010 09:38:20
Библиотека кодирования : libebml v0.8.0 + libmatroska v0.9.0
Видео
Идентификатор : 1
Формат : AVC
Формат/Информация : Advanced Video Codec
Профиль формата : High@L4.1
Параметр CABAC формата : Да
Параметр ReFrames формата : 2 кадра
Идентификатор кодека : V_MPEG4/ISO/AVC
Продолжительность : 1 ч. 45 м.
Битрейт : 18,4 Мбит/сек
Ширина : 1920 пикселей
Высота : 1080 пикселей
Соотношение сторон : 16:9
Частота кадров : 23,976 кадра/сек
Цветовое пространство : YUV
Субдискретизация насыщенности : 4:2:0
Битовая глубина : 8 бит
Тип развёртки : Прогрессивная
Бит/(Пиксели*Кадры) : 0.370
Размер потока : 13,6 Гбайт (87%)
Заголовок : 3DRip-by-kinozal.tv
Библиотека кодирования : x264 core
Default : Да
Forced : Нет
Основные цвета : BT.709-5, BT.1361, IEC 61966-2-4, SMPTE RP177
Характеристики трансфера : BT.709-5, BT.1361
Коэффициенты матрицы : BT.709-5, BT.1361, IEC 61966-2-4 709, SMPTE RP177
Аудио #1
Идентификатор : 2
Формат : AC-3
Формат/Информация : Audio Coding 3
Расширение режима : CM (complete main)
Параметр Endianness формата : Big
Идентификатор кодека : A_AC3
Продолжительность : 1 ч. 45 м.
Вид битрейта : Постоянный
Битрейт : 640 Кбит/сек
Каналы : 6 каналов
Расположение каналов : Front: L C R, Side: L R, LFE
Частота : 48,0 КГц
Битовая глубина : 16 бит
Метод сжатия : С потерями
Размер потока : 483 Мбайт (3%)
Заголовок : 3DRip-by-kinozal.tv
Язык : Russian
Default : Да
Forced : Нет
Аудио #2
Идентификатор : 3
Формат : DTS
Формат/Информация : Digital Theater Systems
Профиль формата : MA / Core
Идентификатор кодека : A_DTS
Продолжительность : 1 ч. 45 м.
Вид битрейта : Переменный
Битрейт : 1576 Кбит/сек / 1510 Кбит/сек
Каналы : 6 каналов
Расположение каналов : Front: L C R, Side: L R, LFE
Частота : 48,0 КГц
Битовая глубина : 24 бит
Метод сжатия : Без потерь / Lossy
Заголовок : 3DRip-by-kinozal.tv
Язык : English
Default : Нет
Forced : Нет
Текст
Идентификатор : 4
Формат : VobSub
Режим смешивания : zlib
Идентификатор кодека : S_VOBSUB
Идентификатор кодека/Информация : The same subtitle format used on DVDs
Заголовок : 3DRip-by-kinozal.tv
Язык : Russian
Default : Да
Forced : Нет
Меню
00:00:00.000 : en:(01)00:00:00:000
00:08:00.980 : en:(02)00:08:00:980
00:10:15.239 : en:(03)00:10:15:239
00:15:31.847 : en:(04)00:15:31:847
00:21:09.518 : en:(05)00:21:09:518
00:28:48.435 : en:(06)00:28:48:435
00:38:54.665 : en:(07)00:38:54:665
00:42:13.072 : en:(08)00:42:13:072
00:48:00.752 : en:(09)00:48:00:752
00:50:34.072 : en:(10)00:50:34:072
00:55:04.592 : en:(11)00:55:04:592
01:04:12.682 : en:(12)01:04:12:682
01:08:28.187 : en:(13)01:08:28:187
01:11:53.600 : en:(14)01:11:53:600
01:17:11.251 : en:(15)01:17:11:251
01:18:31.415 : en:(16)01:18:31:415
01:20:39.668 : en:(17)01:20:39:668
01:22:11.843 : en:(18)01:22:11:843
Остальные раздачи этого фильма (2)
Благодарности релизеру (17)

Торрент:

Статус:

Размер:

Зарегистрирован   [ 2012-09-07 11:50 ]

проверено

15.5 GB

 
 Мнение о фильме (15)





Смотрел в кинотеатре в 3д, очень даже неплохо. Большая часть 3д скучное, считай бытовая съемка в хорошем качестве, но отдельные моменты очень интересные именно как аттракцион 3д. Оценивать худ.ценность не приходится.
 

Мда. Ждал-ждал, но слова "лопата" так и не попалось...
Что именно всем кажется здесь смешным или интересным?
 

Antynik
а меня ниче так пару моментов улыбнули - например, когда толстяк сидел на кресле позади турбины самолета (музыка зачотная и в конце смешно подпрыгнул ) :), а в основном конечно - дебилы они и есть дебилы и к тому же мазохисты :))
 

фильм о дебилах и для дебилов !!!
 

сам ты дебил иди стороной
 

фильм о дебилах и для дебилов !!!
Да уж, дрянь редкостная и мерзостная.
 

да они отмороженные ))) фильм для отморозков!!!
 

да они отмороженные ))) фильм для отморозков!!!
согласен на все сто!!!!!
 

Не смотрите тогда,если фильм для дебилов!!!
 

Kolyosniy, свои дебильные доводы оставь при себе и в следующий раз не воняй
 

посмотрел их в 2 д(1,2,3 и 3 с половиной ,итого 4 фильма)фильмы глупые,местами мерзкие (мест таких много).пересматривать не буду ни когда(и вам не советую).сильнее всего поржал
(по моему во второй серии)где они имитируют побег из тюрьмы через коридор с включенными электрошокерами(очень понравились лица)
 

levakinfx, Дебила зацепило =)
 

Kolyosniy, +100
 

некоторые приколы смешные, остальное мерзость. На LG телевизоре фильм пошел с паузами, не знаю почему. до конца не досмотрел, да и не надо.
 

Интересно, инересно.
На IMDB рейтинг 7.1
На нашем портале сразу чувствуются духовность и скрепы - 4.9
какой бы отсюда вывод сделать...