Торренты   
 
 

 

Планета динозавров / Planet Dinosaur [2012 г., BDrip, Anamorph OverUnder]

Рейтинг 3D:
6 голосов
7.3
Рейтинг фильма:
6 голосов
7.0
 
Вы должны быть авторизированы,
чтобы ставить оценки


--Планета динозавров Совершенные убийцы
Planet Dinosaur Ultimate Killers
--
Год выпуска: 2012
Страна: Великобритания (BBC, Canal+, Jellyfish)
Жанр: документальный, анимация
Продолжительность: 00:52:51
Перевод: Отсутствует
Русские субтитры: нет
Режиссер: Найджел Патерсон
Рассказчик: Джон Хёрт
Описание:
«Планета динозавров» является самым амбициозным проектом, созданным с помощью компьютерной графики, после «Прогулок с динозаврами» (Walking with Dinosaurs), выпущенных десятилетие назад.
Планета Динозавров 3D переместит зрителя во времени на десятки миллионов лет в прошлое. 3D-технологии воплотят в жизнь на экране самых потрясающих и удивительных существ, которые когда-либо жили. Фильм представляет собой совершенно новый глобальный взгляд на доисторические времена, мы увидим существ, которые населяли нашу планету , места их обитания и как они жили, сражались и погибали.
Всего в проекте показано 50 динозавров, созданных в компьютерной графике, в 2500 сценах. Все они были спроектированы на студии Jellyfish командой из художников-раскадровщиков, художников-превизуализаторов, цифровых скульпторов, специалистов по моделированию, специалистов по созданию текстур и концептов, специалистов по Matte Painting, монтажеров, художников-мультипликаторов, осветителей и компоновщиков.
--Релиз группы:

За исходник спасибо:


Проверено на встроенном плейере ТВ LG 42LW4500
--
Качество: BDrip
Контейнер: MKV
Формат 3D: Anamorph OverUnder / Вертикальная анаморфная стереопара
Порядок ракурсов: левый ракурс первый
Видео кодек: x264
Аудио кодек: AC3
Видео: AVC / 23,976 fps / 1920х1080p / 8683 Кbps
Аудио:
#1 - Английский / AC3 / 48 KHz / 5.1 ch / 640 Kbps
Субтитры: Внешние (SRT) (отдельно)
#1 - Английские

MediaInfo

Код:
Общее
Уникальный идентификатор                 : 198564341078486070773052268087808968048 (0x956219DD908A6C85A9C1813D6DA54570)
Полное имя                               : D:\3D-RuGroup\Документальные\PlanetDinosaur.3D.2012.BD3DRip.Half.OU.x264.AC3.Eng.3D-RuGroup.mkv
Формат                                   : Matroska
Версия формата                           : Version 2
Размер файла                             : 3,51 Гбайт
Продолжительность                        : 52 м.
Общий поток                              : 9512 Кбит/сек
Название фильма                          : PlanetDinosaur release by 3D-RuGroup rip by elephant aka itsamna
Дата кодирования                         : UTC 2012-08-27 13:42:51
Программа кодирования                    : mkvmerge v3.4.0 ('Rapunzel') сборка от May 15 2010 09:38:20
Библиотека кодирования                   : libebml v0.8.0 + libmatroska v0.9.0
Видео
Идентификатор                            : 1
Формат                                   : AVC
Формат/Информация                        : Advanced Video Codec
Профиль формата                          : High@L4.1
Параметр CABAC формата                   : Да
Параметр ReFrames формата                : 4 кадра
Идентификатор кодека                     : V_MPEG4/ISO/AVC
Продолжительность                        : 52 м.
Битрейт                                  : 8683 Кбит/сек
Ширина                                   : 1920 пикселей
Высота                                   : 1080 пикселей
Соотношение сторон                       : 16:9
Частота кадров                           : 23,976 кадра/сек
Цветовое пространство                    : YUV
Субдискретизация насыщенности            : 4:2:0
Битовая глубина                          : 8 бит
Тип развёртки                            : Прогрессивная
Бит/(Пиксели*Кадры)                      : 0.175
Размер потока                            : 3,21 Гбайт (91%)
Библиотека кодирования                   : x264 core 125 r2208 d9d2288
Настройки программы                      : cabac=1 / ref=4 / deblock=1:-3:-3 / analyse=0x3:0x133 / me=umh / subme=9 / psy=1 / psy_rd=1.00:0.15 / mixed_ref=1 / me_range=32 / chroma_me=1 / trellis=2 / 8x8dct=1 / cqm=0 / deadzone=21,11 / fast_pskip=0 / chroma_qp_offset=-3 / threads=3 / lookahead_threads=1 / sliced_threads=0 / nr=0 / decimate=1 / interlaced=0 / bluray_compat=0 / constrained_intra=0 / bframes=9 / b_pyramid=2 / b_adapt=2 / b_bias=0 / direct=3 / weightb=1 / open_gop=0 / weightp=2 / keyint=250 / keyint_min=23 / scenecut=40 / intra_refresh=0 / rc_lookahead=60 / rc=crf / mbtree=1 / crf=18.0 / qcomp=0.70 / qpmin=0 / qpmax=69 / qpstep=4 / vbv_maxrate=50000 / vbv_bufsize=50000 / crf_max=0.0 / nal_hrd=none / ip_ratio=1.40 / aq=1:0.90
Язык                                     : English
Default                                  : Нет
Forced                                   : Нет
Аудио
Идентификатор                            : 2
Формат                                   : AC-3
Формат/Информация                        : Audio Coding 3
Расширение режима                        : CM (complete main)
Идентификатор кодека                     : A_AC3
Продолжительность                        : 52 м.
Вид битрейта                             : Постоянный
Битрейт                                  : 640 Кбит/сек
Каналы                                   : 6 каналов
Расположение каналов                     : Front: L C R, Side: L R, LFE
Частота                                  : 48,0 КГц
Битовая глубина                          : 16 бит
Метод сжатия                             : С потерями
Размер потока                            : 242 Мбайт (7%)
Язык                                     : English
Default                                  : Да
Forced                                   : Нет
Меню
00:00:00.000                             : :01
00:09:08.965                             : :02
00:15:32.056                             : :03
00:22:49.326                             : :04
00:29:03.325                             : :05
00:36:43.827                             : :06
00:43:18.513                             : :07
00:52:15.090                             : :08

Скриншоты

Благодарности релизеру (11)

Торрент:

Статус:

Размер:

Зарегистрирован   [ 2012-08-27 18:09 ]

проверено

3.51 GB