Торренты   
 
 


Каждая секунда на счету / Make Every Second Count [2011, BDrip, half1080p, Anamorph OverUnder]

Рейтинг 3D:
Пока никто не голосовал
Рейтинг фильма:
Пока никто не голосовал
 
Вы должны быть авторизированы,
чтобы ставить оценки


Каждая секунда на счету
Make Every Second Count
Год выпуска: 2011
Студия: Sony Creative Software, NVidia 3D Vision, Canfield Brothers, Spinteck Films
Жанр: Спорт, Маунтин-байк, Велотрюки
Продолжительность: 01:06:50
Перевод: Отсутствует (почти не требуется)
Режиссер: Нэт Бартоломью / Nat Bartholomew
Описание: Жизнь коротка, и езда на велосипеде всегда является единственной страстью райдеров. Make Every Second Count является 3D-видео с участием гонщиков, которые просто делают то, что они могут. Лучшие гонщики и фри-райдеры в мире предложат вам всего по-немногу.
Съедьте с горы с US National Champ Logan Bingelli в Вёрджине, штат Юта. Посмотрите, как лучшие гонщики слоупстайл-трюков сражаются в Teva Mountain Games в Вейл, штат Колорадо и вкусите опыт Кубка мира по спуску с горы с быстрейшим гонщиком в мире. Посетите крытый велопарк Ray, "полетайте" по лучшим грязевым прыжковым трассам и многое другое, в настоящем 3D!-За исходный БД спасибо 3D4ALL!
За информацию спасибо !--Best 3D Cinematography 2011
Jury 3rd Place 7th Annual LA 3D Movie Festival

Проверено на встроенном плейере ТВ Samsung UE-C7000--Формат 3d: Anamorph OverUnder
Качество: BDrip
Контейнер: MKV-Видео: AVC / 59.940 fps / 1280х720p / 7905 Kbps
Аудио: Английский / AC3 / 48 KHz / 2 ch / 192 Kbps
Субтитры: Отсутствуют

MediaInfo

General
UniqueID : 171775347416984712188872012105652388390 (0x813ABA80EDA28DED811BE87C87B04226)
Complete name : F:\Downloads\MakeEverySecondCount(3D)2011.halfOU.Eng(Ash61).mkv
Format : Matroska
File size : 3.86 GiB
Duration : 1h 6mn
Overall bit rate : 8 261 Kbps
Movie name : Make Every Second Count (3D) 2011 (by Ash61)
Encoded date : UTC 2012-08-27 14:54:09
Writing application : mkvmerge v3.4.0 ('Rapunzel') сборка от May 15 2010 09:38:20
Writing library : libebml v0.8.0 + libmatroska v0.9.0
Video
ID : 1
Format : AVC
Format/Info : Advanced Video Codec
Format profile : High@L4.1
Format settings, CABAC : Yes
Format settings, ReFrames : 4 frames
Codec ID : V_MPEG4/ISO/AVC
Duration : 1h 6mn
Bit rate : 7 905 Kbps
Width : 1 280 pixels
Height : 720 pixels
Display aspect ratio : 16:9
Frame rate : 59.940 fps
Color space : YUV
Chroma subsampling : 4:2:0
Bit depth : 8 bits
Scan type : Progressive
Bits/(Pixel*Frame) : 0.143
Stream size : 3.69 GiB (96%)
Title : BDrip by Ash61
Writing library : x264 core 119 r2106 07efeb4
Encoding settings : cabac=1 / ref=4 / deblock=1:-3:-3 / analyse=0x3:0x113 / me=umh / subme=9 / psy=1 / psy_rd=1.00:0.15 / mixed_ref=1 / me_range=16 / chroma_me=1 / trellis=2 / 8x8dct=1 / cqm=0 / deadzone=21,11 / fast_pskip=1 / chroma_qp_offset=-3 / threads=3 / sliced_threads=0 / nr=0 / decimate=1 / interlaced=0 / bluray_compat=0 / constrained_intra=0 / bframes=6 / b_pyramid=2 / b_adapt=2 / b_bias=0 / direct=3 / weightb=1 / open_gop=0 / weightp=2 / keyint=250 / keyint_min=25 / scenecut=40 / intra_refresh=0 / rc_lookahead=60 / rc=crf / mbtree=1 / crf=20.0 / qcomp=0.60 / qpmin=10 / qpmax=51 / qpstep=4 / vbv_maxrate=40000 / vbv_bufsize=40000 / crf_max=0.0 / nal_hrd=none / ip_ratio=1.40 / aq=1:0.70
Language : English
Audio
ID : 2
Format : AC-3
Format/Info : Audio Coding 3
Mode extension : CM (complete main)
Codec ID : A_AC3
Duration : 1h 6mn
Bit rate mode : Constant
Bit rate : 192 Kbps
Channel(s) : 2 channels
Channel positions : Front: L R
Sampling rate : 48.0 KHz
Bit depth : 16 bits
Compression mode : Lossy
Stream size : 91.8 MiB (2%)
Title : Original
Language : English
Благодарности релизеру (6)

Торрент:

Статус:

Размер:

Зарегистрирован   [ 2012-08-27 23:40 ]

проверено

3.86 GB