Торренты   
 
 

 

IMAX - Призраки Бездны: Титаник / IMAX - Ghosts of the Abyss (Джеймс Кэмерон) [2003 г., Anamorph SideBySide]

Рейтинг 3D:
9 голосов
9.0
Рейтинг фильма:
9 голосов
9.1
 
Вы должны быть авторизированы,
чтобы ставить оценки


IMAX - Призраки Бездны: Титаник / IMAX - Ghosts of the Abyss
Год выпуска: 2003
Страна: США, Earthship Productions, Walden Media, Walt Disney Pictures
Жанр: Документальный
Продолжительность: 01:31:16
Перевод: Профессиональный (двухголосый)
Режиссер: Джеймс Кэмерон
В ролях: Билл Пэкстон, Лори Джонстон, Дон Линч, Кен Маршалл, Чарлз Пеллегрино
Описание: Джеймс Кэмерон расcказывает подлинную историю легендарного «Титаника». Подготовка к уникальным подводным съемкам велась долгих три года, за которые были собраны новейшие технологические ресурсы и составлена команда высококлассных профессионалов, в которую помимо съемочной группы вошли известные историки и океанологи.
Формат 3d: Anamorph SideBySide
Видео: MPEG-4 AVC, 8162 Кбит/с, 1920x1080, 23.976 кадра/с
Аудио: Русский, (AC3, 6 ch, 448 Кбит/с), английский (DTS, 6 ch, 1510 Кбит/с), французский, (AC3, 6 ch, 640 Кбит/с)

Скриншоты



Инфо-файл

Общее
Уникальный идентификатор : 197636564833224209041561086640683078545 (0x94AF6AF7069691AFB7FDD4FD09C5D391)
Полное имя : G:\Кино3Д\Prizraki.bezdny.Titanik.2003.x264.BDRip.1080p.3DRip.by.kinozal.tv.mkv
Формат : Matroska
Версия формата : Version 2
Размер файла : 7,00 Гбайт
Продолжительность : 1 ч. 31 м.
Общий поток : 11,0 Мбит/сек
Название фильма : 3Drip-by-kinozal.TV
Дата кодирования : UTC 2012-08-29 17:40:16
Программа кодирования : mkvmerge v3.4.0 ('Rapunzel') сборка от May 15 2010 09:38:20
Библиотека кодирования : libebml v0.8.0 + libmatroska v0.9.0
Видео
Идентификатор : 1
Формат : AVC
Формат/Информация : Advanced Video Codec
Профиль формата : High@L4.1
MultiView_Count : 2
MultiView_Layout : Right Eye
Параметр CABAC формата : Да
Параметр ReFrames формата : 4 кадра
Идентификатор кодека : V_MPEG4/ISO/AVC
Продолжительность : 1 ч. 31 м.
Битрейт : 8162 Кбит/сек
Ширина : 1920 пикселей
Высота : 1080 пикселей
Соотношение сторон : 16:9
Частота кадров : 23,976 кадра/сек
Цветовое пространство : YUV
Субдискретизация насыщенности : 4:2:0
Битовая глубина : 8 бит
Тип развёртки : Прогрессивная
Бит/(Пиксели*Кадры) : 0.164
Размер потока : 5,20 Гбайт (74%)
Заголовок : 3Drip-by-kinozal.TV
Библиотека кодирования : x264 core 125 r2208 d9d2288
Настройки программы : cabac=1 / ref=4 / deblock=1:-3:-3 / analyse=0x3:0x113 / me=umh / subme=9 / psy=1 / psy_rd=1.00:0.15 / mixed_ref=1 / me_range=16 / chroma_me=1 / trellis=1 / 8x8dct=1 / cqm=0 / deadzone=21,11 / fast_pskip=1 / chroma_qp_offset=-3 / threads=18 / lookahead_threads=3 / sliced_threads=0 / nr=0 / decimate=1 / interlaced=0 / bluray_compat=0 / constrained_intra=0 / bframes=3 / b_pyramid=2 / b_adapt=1 / b_bias=0 / direct=3 / weightb=1 / open_gop=0 / weightp=2 / keyint=250 / keyint_min=23 / scenecut=40 / intra_refresh=0 / rc_lookahead=40 / rc=crf / mbtree=1 / crf=19.0 / qcomp=0.60 / qpmin=10 / qpmax=69 / qpstep=4 / vbv_maxrate=40000 / vbv_bufsize=30000 / crf_max=0.0 / nal_hrd=none / ip_ratio=1.40 / aq=1:1.00
Default : Нет
Forced : Нет
Аудио #1
Идентификатор : 2
Формат : AC-3
Формат/Информация : Audio Coding 3
Расширение режима : CM (complete main)
Параметр Endianness формата : Big
Идентификатор кодека : A_AC3
Продолжительность : 1 ч. 31 м.
Вид битрейта : Постоянный
Битрейт : 448 Кбит/сек
Каналы : 6 каналов
Расположение каналов : Front: L C R, Side: L R, LFE
Частота : 48,0 КГц
Битовая глубина : 16 бит
Метод сжатия : С потерями
Размер потока : 292 Мбайт (4%)
Заголовок : 3Drip-by-kinozal.TV
Язык : Russian
Default : Да
Forced : Нет
Аудио #2
Идентификатор : 3
Формат : DTS
Формат/Информация : Digital Theater Systems
Идентификатор кодека : A_DTS
Продолжительность : 1 ч. 31 м.
Вид битрейта : Постоянный
Битрейт : 1510 Кбит/сек
Каналы : 6 каналов
Расположение каналов : Front: L C R, Side: L R, LFE
Частота : 48,0 КГц
Битовая глубина : 24 бит
Метод сжатия : С потерями
Задержка видео : 11 мс.
Размер потока : 986 Мбайт (14%)
Язык : English
Default : Нет
Forced : Нет
Аудио #3
Идентификатор : 4
Формат : AC-3
Формат/Информация : Audio Coding 3
Расширение режима : CM (complete main)
Параметр Endianness формата : Big
Идентификатор кодека : A_AC3
Продолжительность : 1 ч. 31 м.
Вид битрейта : Постоянный
Битрейт : 640 Кбит/сек
Каналы : 6 каналов
Расположение каналов : Front: L C R, Side: L R, LFE
Частота : 48,0 КГц
Битовая глубина : 16 бит
Метод сжатия : С потерями
Размер потока : 418 Мбайт (6%)
Заголовок : 3Drip-by-kinozal.TV
Язык : French
Default : Нет
Forced : Нет
Меню
00:00:00.000 : en:00:00:00.000
00:03:26.873 : en:00:03:26.873
00:07:17.937 : en:00:07:17.937
00:13:04.909 : en:00:13:04.909
00:18:18.848 : en:00:18:18.848
00:22:47.616 : en:00:22:47.616
00:35:30.253 : en:00:35:30.253
00:38:21.049 : en:00:38:21.049
00:44:25.162 : en:00:44:25.162
00:50:29.818 : en:00:50:29.818
00:54:13.584 : en:00:54:13.584
00:59:04.082 : en:00:59:04.082
Благодарности релизеру (13)

Торрент:

Статус:

Размер:

Зарегистрирован   [ 2012-08-29 23:47 ]

проверено

7 GB