Торренты   
 
 


Пираньи 3DD / Piranha 3DD (Джон Гулажер) [2012 г., Anamorph OverUnder]

Рейтинг 3D:
4 голосов
5.5
Рейтинг фильма:
4 голосов
3.5
 
Вы должны быть авторизированы,
чтобы ставить оценки


Пираньи 3DD / Piranha 3DD
Год выпуска: 2012
Страна: США, Dimension Films
Жанр: Ужасы, комедия, триллер
Продолжительность: 01:22:41
Перевод: Дублированный ( лицензия )
Режиссер: Джон Гулажер
В ролях: Даниэль Панабэйкер, Мэтт Буш, Дэвид Кокнер, Жан-Люк Билодо, Крис Зилка, Катрина Боуден, Адриан Мартинез, Пол Джеймс, Мэган Тэнди, Дэвид Хэсселхофф, Кристофер Ллойд
Описание: Доисторические твари больше не будут ограничиваться поеданием туристов на озере, а проникнут через водопроводные и канализационные сети в бассейны и иные искусственные водоемы нового аквапарка под названием Wilderness Waters. Именно там и развернется основное действие.
Формат 3d: Anamorph OverUnder
Видео: MPEG-4 AVC, 19.8 Mбит/с, 1920x1080, 23.976 Кадр/с
Аудио: Русский (AC3, 6 ch, 384 Кбит/c), английский (DTS-HD, 6 ch, 4219 Кбит/c)

Скриншоты



Инфо-файл

Общее
Уникальный идентификатор : 198883911628553115448181282294818436476 (0x959FA5E8FAA8CA38BC14C6C2FC98757C)
Полное имя : G:\Кино3Д\Piranha.3DD.2012.x264.BDRip.1080p.3Drip.by.kinozal.mkv
Формат : Matroska
Версия формата : Version 2
Размер файла : 13,0 Гбайт
Продолжительность : 1 ч. 22 м.
Режим общего битрейта : Переменный
Общий поток : 22,6 Мбит/сек
Название фильма : 3DRip-by-kinozal.tv
Дата кодирования : UTC 2012-08-30 11:01:17
Программа кодирования : mkvmerge v3.4.0 ('Rapunzel') сборка от May 15 2010 09:38:20
Библиотека кодирования : libebml v0.8.0 + libmatroska v0.9.0
Видео
Идентификатор : 1
Формат : AVC
Формат/Информация : Advanced Video Codec
Профиль формата : High@L4.1
Параметр CABAC формата : Да
Параметр ReFrames формата : 2 кадра
Идентификатор кодека : V_MPEG4/ISO/AVC
Продолжительность : 1 ч. 22 м.
Битрейт : 19,8 Мбит/сек
Ширина : 1920 пикселей
Высота : 1080 пикселей
Соотношение сторон : 16:9
Частота кадров : 23,976 кадра/сек
Цветовое пространство : YUV
Субдискретизация насыщенности : 4:2:0
Битовая глубина : 8 бит
Тип развёртки : Прогрессивная
Бит/(Пиксели*Кадры) : 0.398
Размер потока : 11,4 Гбайт (88%)
Заголовок : 3DRip-by-kinozal.tv
Библиотека кодирования : x264 core
Default : Да
Forced : Нет
Основные цвета : BT.709-5, BT.1361, IEC 61966-2-4, SMPTE RP177
Характеристики трансфера : BT.709-5, BT.1361
Коэффициенты матрицы : BT.709-5, BT.1361, IEC 61966-2-4 709, SMPTE RP177
Аудио #1
Идентификатор : 2
Формат : AC-3
Формат/Информация : Audio Coding 3
Расширение режима : CM (complete main)
Параметр Endianness формата : Big
Идентификатор кодека : A_AC3
Продолжительность : 1 ч. 22 м.
Вид битрейта : Постоянный
Битрейт : 384 Кбит/сек
Каналы : 6 каналов
Расположение каналов : Front: L C R, Side: L R, LFE
Частота : 48,0 КГц
Битовая глубина : 16 бит
Метод сжатия : С потерями
Размер потока : 227 Мбайт (2%)
Заголовок : 3DRip-by-kinozal.tv
Язык : Russian
Default : Да
Forced : Нет
Аудио #2
Идентификатор : 3
Формат : AC-3
Формат/Информация : Audio Coding 3
Расширение режима : CM (complete main)
Параметр Endianness формата : Big
Идентификатор кодека : A_AC3
Продолжительность : 1 ч. 22 м.
Вид битрейта : Постоянный
Битрейт : 384 Кбит/сек
Каналы : 6 каналов
Расположение каналов : Front: L C R, Side: L R, LFE
Частота : 48,0 КГц
Битовая глубина : 16 бит
Метод сжатия : С потерями
Размер потока : 227 Мбайт (2%)
Заголовок : 3DRip-by-kinozal.tv
Язык : Russian
Default : Нет
Forced : Нет
Аудио #3
Идентификатор : 4
Формат : DTS
Формат/Информация : Digital Theater Systems
Профиль формата : MA / Core
Идентификатор кодека : A_DTS
Продолжительность : 1 ч. 22 м.
Вид битрейта : Переменный
Битрейт : 1561 Кбит/сек / 1510 Кбит/сек
Каналы : 6 каналов
Расположение каналов : Front: L C R, Side: L R, LFE
Частота : 48,0 КГц
Битовая глубина : 24 бит
Метод сжатия : Без потерь / Lossy
Заголовок : 3DRip-by-kinozal.tv
Язык : English
Default : Нет
Forced : Нет
Меню
00:00:00.000 : en:(01)00:00:00:000
00:06:21.255 : en:(02)00:06:21:255
00:11:48.582 : en:(03)00:11:48:582
00:14:14.895 : en:(04)00:14:14:895
00:18:45.457 : en:(05)00:18:45:457
00:21:38.839 : en:(06)00:21:38:839
00:25:06.546 : en:(07)00:25:06:546
00:31:41.399 : en:(08)00:31:41:399
00:36:06.038 : en:(09)00:36:06:038
00:41:52.843 : en:(10)00:41:52:843
00:45:12.835 : en:(11)00:45:12:835
00:51:23.997 : en:(12)00:51:23:997
00:57:06.673 : en:(13)00:57:06:673
01:00:16.321 : en:(14)01:00:16:321
01:05:32.345 : en:(15)01:05:32:345
01:10:47.660 : en:(16)01:10:47:660
Благодарности релизеру (4)

Торрент:

Статус:

Размер:

Зарегистрирован   [ 2012-08-30 20:45 ]

проверено

13.05 GB