Торренты   
 
 

 

Тростниковые жабы: Оккупация в 3Д / Cane Toads: The Conquest 3D (Mark Lewis) [2010 г., Anamorph OverUnder]

Рейтинг 3D:
3 голосов
9.0
Рейтинг фильма:
3 голосов
9.0
 
Вы должны быть авторизированы,
чтобы ставить оценки


Тростниковые жабы: Оккупация в 3Д / Cane Toads: The Conquest 3D
Год выпуска: 2010
Страна: США, Австралия
Жанр: документальный
Продолжительность: 01:23:43
Перевод: Профессиональный (одноголосый)
Режиссер: Mark Lewis
Описание: Ядовитые тростниковые жабы были завезены в Австралию в 1935 году для борьбы с жуками, разорявшими сахарные плантации. С тех пор жабы размножились так, что стали представлять угрозу всей экосистеме страны.
Передовые технологии позволили создать полный напряжения и юмора фильм с точки зрения жаб. Впервые человек имеет возможность с головой окунуться в мир этих загадочных существ и почувствовать себя жабой, захватившей целый континент и вышедшей на охоту в поисках пропитания…
Формат 3d: Anamorph OverUnder
Видео: AVC / 1920х1080 / 23,976 кадр/сек / 17,1 Мбит/сек

Скриншоты

Медиа-инфо

[F:\VIDEO\3D\документалки\Тростниковые жабы Оккупация (2010).mkv
General
Unique ID : 199342875198942652209674047083023978498 (0x95F80A8FA92721AF4D7124D577AC5002)
Complete name : F:\VIDEO\3D\документалки\Тростниковые жабы Оккупация (2010).mkv
Format : Matroska
Format version : Version 2
File size : 10.00 GiB
Duration : 1h 23mn
Overall bit rate : 17.1 Mbps
Writing application : Lavf53.24.2
Writing library : Lavf53.24.2
Video #1
ID : 1
Format : AVC
Format/Info : Advanced Video Codec
Format profile : Baseline@L4.1
Format settings, CABAC : No
Format settings, ReFrames : 1 frame
Codec ID : V_MPEG4/ISO/AVC
Duration : 1h 23mn
Bit rate : 17.1 Mbps
Width : 1 920 pixels
Height : 1 080 pixels
Display aspect ratio : 16:9
Frame rate mode : Variable
Frame rate : 23.976 fps
Color space : YUV
Chroma subsampling : 4:2:0
Bit depth : 8 bits
Scan type : Progressive
Bits/(Pixel*Frame) : 0.344
Stream size : 9.73 GiB (97%)
Writing library : x264 core 118
Encoding settings : cabac=0 / ref=1 / deblock=1:0:0 / analyse=0x1:0x111 / me=dia / subme=0 / psy=0 / mixed_ref=0 / me_range=16 / chroma_me=1 / trellis=0 / 8x8dct=0 / cqm=0 / deadzone=21,11 / fast_pskip=1 / chroma_qp_offset=0 / threads=4 / sliced_threads=0 / nr=0 / decimate=1 / interlaced=0 / bluray_compat=0 / constrained_intra=0 / bframes=0 / weightp=0 / keyint=250 / keyint_min=25 / scenecut=0 / intra_refresh=0 / rc=abr / mbtree=0 / bitrate=17100 / ratetol=1.0 / qcomp=0.60 / qpmin=10 / qpmax=51 / qpstep=4 / ip_ratio=1.40 / aq=0
Language : English
Audio #2
ID : 2
Format : AC-3
Format/Info : Audio Coding 3
Mode extension : CM (complete main)
Codec ID : A_AC3
Duration : 1h 23mn
Bit rate mode : Constant
Bit rate : 128 Kbps
Channel(s) : 2 channels
Channel positions : Front: L R
Sampling rate : 48.0 KHz
Bit depth : 16 bits
Compression mode : Lossy
Stream size : 76.6 MiB (1%)
Language : English
Благодарности релизеру (5)

Торрент:

Статус:

Размер:

Зарегистрирован   [ 2012-11-29 22:31 ]

* не проверено

10 GB