Торренты   
 
 

 

Патагония: По следам Дарвина (часть 1) / Patagonien (teil 1) / Patagonia (part 1) [2012, BDrip, half1080p, Anamorph OverUnder]

Рейтинг 3D:
10 голосов
7.0
Рейтинг фильма:
8 голосов
6.2
 
Вы должны быть авторизированы,
чтобы ставить оценки


Патагония: По следам Дарвина
Часть 1: От Буэнос-Айреса до мыса Байя

Patagonien: Auf den Spuren von Charles Darwin
Teil 1: Von Buenos Aires bis Cabo dos Bahias

Patagonia: In the Footsteps of Charles Darwin
Part 1: From Buenos Aires to Cabo dos Bahias
- Год выпуска: 2012
Страна: Германия (New KSM)
Жанр: Документальный
Продолжительность: 00:52:30
Перевод: Профессиональный одноголосый закадровый
Режиссер: Norbert Vander
Описание: Патагония — страна бесконечных просторов и нетронутой природы, куда попадают очень немногие. Следуя по маршруту путешествия выдающегося ученого 19 века Чарльза Дарвина, фильм показывает удивительный мир животных и захватывающие дух пейзажи. Полуостров Вальдес — это настоящий райский уголок на восточном побережье Патагонии, который находится под охраной ЮНЕСКО. Вы сможете встретиться с китами, посетить одну из последних колоний морских слонов и понаблюдать за несчетными колониями Магеллановых пингвинов. Вам предоставляется возможность насладиться зрелищем одного из красивейших ландшафтов на Земле.
Доп. информация: Вторая часть тут-Релиз на Blu-Ray (DVD): 24 апреля 2013 (25 апреля 2013)
. .
-Качество: BDRip (by Ash61)
Контейнер: MKV
Формат 3D: Anamorph OverUnder / Вертикальная анаморфная стереопара
Порядок ракурсов: левый ракурс первый-Видео: AVC / 23,976 fps / 1920х1080p / 14.2 Mbps
Аудио:
#1 - Русский / AC3 / 48 KHz / 5.1 ch / 640 Kbps (VO - BD 3D Rus)
#2 - Английский / AC3 / 48 KHz / 5.1 ch / 640 Kbps
Субтитры: Отсутствуют

MediaInfo

General
Unique ID : 212661468124319688997424932981397098606 (0x9FFD1BE400BCEDFF83626BA7C6F9906E)
Complete name : G:\Downloads\Patagonia.InTheFootstepsOfCharlesDarwin(3D)2012.halfOU(Ash61).mkv
Format : Matroska
Format version : Version 2
File size : 5.80 GiB
Duration : 52mn 31s
Overall bit rate : 15.8 Mbps
Movie name : Патагония: По следам Дарвина / Patagonia: In the Footsteps of Charles Darwin (3D) 2012 (by Ash61)
Encoded date : UTC 2013-05-10 10:06:15
Writing application : mkvmerge v5.8.0 ('No Sleep / Pillow') built on Sep 2 2012 15:37:04
Writing library : libebml v1.2.3 + libmatroska v1.3.0
Video
ID : 1
Format : AVC
Format/Info : Advanced Video Codec
Format profile : High@L4.1
Format settings, CABAC : Yes
Format settings, ReFrames : 4 frames
Codec ID : V_MPEG4/ISO/AVC
Duration : 52mn 31s
Bit rate : 14.2 Mbps
Width : 1 920 pixels
Height : 1 080 pixels
Display aspect ratio : 16:9
Frame rate mode : Constant
Frame rate : 23.976 fps
Color space : YUV
Chroma subsampling : 4:2:0
Bit depth : 8 bits
Scan type : Progressive
Bits/(Pixel*Frame) : 0.286
Stream size : 5.22 GiB (90%)
Title : BDRip by Ash61
Writing library : x264 core 119 r2106 07efeb4
Encoding settings : cabac=1 / ref=4 / deblock=1:-3:-3 / analyse=0x3:0x113 / me=umh / subme=9 / psy=1 / psy_rd=1.00:0.15 / mixed_ref=1 / me_range=16 / chroma_me=1 / trellis=2 / 8x8dct=1 / cqm=0 / deadzone=21,11 / fast_pskip=1 / chroma_qp_offset=-3 / threads=3 / sliced_threads=0 / nr=0 / decimate=1 / interlaced=0 / bluray_compat=0 / constrained_intra=0 / bframes=6 / b_pyramid=2 / b_adapt=2 / b_bias=0 / direct=3 / weightb=1 / open_gop=0 / weightp=2 / keyint=250 / keyint_min=23 / scenecut=40 / intra_refresh=0 / rc_lookahead=60 / rc=crf / mbtree=1 / crf=18.0 / qcomp=0.70 / qpmin=0 / qpmax=69 / qpstep=4 / vbv_maxrate=40000 / vbv_bufsize=40000 / crf_max=0.0 / nal_hrd=none / frame-packing=4 / ip_ratio=1.40 / aq=1:0.70
Language : German
Default : Yes
Forced : No
Audio #1
ID : 2
Format : AC-3
Format/Info : Audio Coding 3
Mode extension : CM (complete main)
Format settings, Endianness : Big
Codec ID : A_AC3
Duration : 52mn 31s
Bit rate mode : Constant
Bit rate : 640 Kbps
Channel(s) : 6 channels
Channel positions : Front: L C R, Side: L R, LFE
Sampling rate : 48.0 KHz
Bit depth : 16 bits
Compression mode : Lossy
Stream size : 240 MiB (4%)
Title : Одноголосый закадровый - BD 3D
Language : Russian
Default : Yes
Forced : Yes
Audio #2
ID : 3
Format : AC-3
Format/Info : Audio Coding 3
Mode extension : CM (complete main)
Format settings, Endianness : Big
Codec ID : A_AC3
Duration : 52mn 31s
Bit rate mode : Constant
Bit rate : 640 Kbps
Channel(s) : 6 channels
Channel positions : Front: L C R, Side: L R, LFE
Sampling rate : 48.0 KHz
Bit depth : 16 bits
Compression mode : Lossy
Stream size : 240 MiB (4%)
Title : Original
Language : English
Default : No
Forced : No
Menu
00:00:00.000 : :1
00:07:21.608 : :2
00:26:19.411 : :3
00:39:39.961 : :4
00:51:27.584 : :5

Для оценки 3д - Анимированные скрины


















Остальные раздачи этого фильма (2)
Благодарности релизеру (19)

Торрент:

Статус:

Размер:

Зарегистрирован   [ 2013-05-10 16:48 ]

проверено

5.8 GB