Торренты   
 
 

 

Призраки бездны: Титаник / Ghosts of the Abyss [2003, BDRip, half1080p, Anamorph OverUnder]

Рейтинг 3D:
6 голосов
7.2
Рейтинг фильма:
7 голосов
8.4
 
Вы должны быть авторизированы,
чтобы ставить оценки


-Призраки бездны: Титаник / Ghosts of the Abyss Год выпуска: 2003
Страна: США (Walt Disney Pictures, Walden Media, Earthship Productions)
Жанр: Документальный
Продолжительность: 01:00:44
Перевод: Профессиональный (двухголосый закадровый)
Режиссер, продюсер: Джеймс Кэмерон / James Cameron
В фильме снимались:

Билл Пэкстон, Джеймс Кэмерон, доктор Джон Бродвотер, доктор Лори Джонстон, Чарльз Пеллегрино, Дон Линч (+ Томас Эндрюс), Кен Маршалл (+ Дж.Брюс Исмэй), Майк Кэмерон, Джеффри Н. Ледда...
Описание: Джеймс Кэмерон расcказывает подлинную историю легендарного «Титаника». Подготовка к уникальным подводным съемкам велась долгих три года, за которые были собраны новейшие технологические ресурсы и составлена команда высококлассных профессионалов, в которую помимо съемочной группы вошли известные историки и океанологи. Экспедиция проходила на российском научно-исследовательском судне "Академик Мстислав Келдыш".

Техн. детали съёмки

  • Формат изображения: 1.78 : 1
  • Камера: Custom built 3-D Camera
  • Формат копии: 35 mm (anaglyphic 3-D version)
    70 mm (horizontal) (dual-strip 3-D)
    D-Cinema (anaglyphic 3-D version)
  • Формат съёмок: Video (HDTV)
  • Изображение: цветное
  • За русскую дорогу спасибо
    Премьера: 31 марта 2003
    Бюджет: $13 000 000
    Кассовые сборы: $17 040 711

    . . .
    Проверено на встроенном плейере ТВ Samsung UE-C7000--Формат 3d: Anamorph OverUnder
    Качество: BDrip
    Контейнер: MKV-Видео: AVC / 23,976 fps / 1920х1080p / 16.3 Mbps
    Аудио:
    #1 - Русский / AC3 / 48 KHz / 5.1 ch / 448 Kbps (DVO - Редакция BlueBird)
    #2 - Английский / AC3 / 48 KHz / 5.1 ch / 640 Kbps (Original)
    Субтитры: Отсутствуют

    MediaInfo

    General
    UniqueID : 248593303927900593238985656485101941168 (0xBB05542C4B8DCB1F9157859A04A7B1B0)
    Complete name : F:\Downloads\GhostsOfTheAbyss(3D)2003.halfOU(Ash61)BB-audio.mkv
    Format : Matroska
    File size : 7.62 GiB
    Duration : 1h 0mn
    Overall bit rate : 18.0 Mbps
    Movie name : Ghosts of the Abyss (3D) 2003 (by Ash61)
    Encoded date : UTC 2012-09-06 14:06:06
    Writing application : mkvmerge v3.4.0 ('Rapunzel') сборка от May 15 2010 09:38:20
    Writing library : libebml v0.8.0 + libmatroska v0.9.0
    Video
    ID : 1
    Format : AVC
    Format/Info : Advanced Video Codec
    Format profile : High@L4.1
    Format settings, CABAC : Yes
    Format settings, ReFrames : 4 frames
    Codec ID : V_MPEG4/ISO/AVC
    Duration : 1h 0mn
    Bit rate : 16.3 Mbps
    Width : 1 920 pixels
    Height : 1 080 pixels
    Display aspect ratio : 16:9
    Frame rate : 23.976 fps
    Color space : YUV
    Chroma subsampling : 4:2:0
    Bit depth : 8 bits
    Scan type : Progressive
    Bits/(Pixel*Frame) : 0.328
    Stream size : 6.92 GiB (91%)
    Title : BDrip by Ash61
    Writing library : x264 core 119 r2106 07efeb4
    Encoding settings : cabac=1 / ref=4 / deblock=1:-3:-3 / analyse=0x3:0x113 / me=umh / subme=9 / psy=1 / psy_rd=1.00:0.15 / mixed_ref=1 / me_range=16 / chroma_me=1 / trellis=2 / 8x8dct=1 / cqm=0 / deadzone=21,11 / fast_pskip=1 / chroma_qp_offset=-3 / threads=3 / sliced_threads=0 / nr=0 / decimate=1 / interlaced=0 / bluray_compat=0 / constrained_intra=0 / bframes=6 / b_pyramid=2 / b_adapt=2 / b_bias=0 / direct=3 / weightb=1 / open_gop=0 / weightp=2 / keyint=250 / keyint_min=23 / scenecut=40 / intra_refresh=0 / rc_lookahead=60 / rc=crf / mbtree=1 / crf=17.0 / qcomp=0.60 / qpmin=10 / qpmax=51 / qpstep=4 / vbv_maxrate=40000 / vbv_bufsize=40000 / crf_max=0.0 / nal_hrd=none / frame-packing=4 / ip_ratio=1.40 / aq=1:0.70
    Language : English
    Audio #1
    ID : 2
    Format : AC-3
    Format/Info : Audio Coding 3
    Mode extension : CM (complete main)
    Codec ID : A_AC3
    Duration : 1h 0mn
    Bit rate mode : Constant
    Bit rate : 640 Kbps
    Channel(s) : 6 channels
    Channel positions : Front: L C R, Side: L R, LFE
    Sampling rate : 48.0 KHz
    Bit depth : 16 bits
    Compression mode : Lossy
    Stream size : 278 MiB (4%)
    Title : DVO (BlueBird edition)
    Language : Russian
    Audio #2
    ID : 3
    Format : AC-3
    Format/Info : Audio Coding 3
    Mode extension : CM (complete main)
    Codec ID : A_AC3
    Duration : 1h 0mn
    Bit rate mode : Constant
    Bit rate : 640 Kbps
    Channel(s) : 6 channels
    Channel positions : Front: L C R, Side: L R, LFE
    Sampling rate : 48.0 KHz
    Bit depth : 16 bits
    Compression mode : Lossy
    Stream size : 278 MiB (4%)
    Title : Original
    Language : English
    Menu
    00:00:00.000 : :1
    00:03:26.873 : :2
    00:07:17.937 : :3
    00:13:04.909 : :4
    00:18:18.848 : :5
    00:22:47.616 : :6
    00:35:30.253 : :7
    00:38:21.049 : :8
    00:44:25.162 : :9
    00:50:29.818 : :10
    00:54:13.584 : :11
    00:59:04.082 : :12
    Благодарности релизеру (13)

    Торрент:

    Статус:

    Размер:

    Зарегистрирован   [ 2012-09-06 23:54 ]

    проверено

    7.62 GB