Торренты   
 
 


Люди в черном 3 / Men in Black 3 (Барри Зонненфельд) [2012 г., Anamorph SideBySide]

Рейтинг 3D:
3 голосов
6.7
Рейтинг фильма:
2 голосов
7.0
 
Вы должны быть авторизированы,
чтобы ставить оценки


Люди в черном 3 / Men in Black 3
Год выпуска: 2012
Страна: США, Amblin Entertainment, Hemisphere Media Capital, Imagenation Abu Dhabi FZ, Media Magik Entertainment, Parkes/MacDonald Productions
Жанр: Фантастика, боевик, комедия, приключения
Продолжительность: 01:45:50
Перевод: Профессиональный (полное дублирование)
Режиссер: Барри Зонненфельд
В ролях: Уилл Смит, Джош Бролин, Томми Ли Джонс, Джемейн Клемент, Майкл Стулбарг, Эмма Томпсон, Элис Ив, Майк Колтер, Билл Хэйдер, Майкл Чернус, Николь Шерзингер, Дэвид Раш, Кион Янг, Кайен Мартин, Кларк Торелл, Адам Муччи, Том МакКомас, Дуглас Кросби, Вуди Кинг мл., Джек О`Коннелл, Тобиаш Сигал, Джон Шэйвер, Герритт Вэндэрмир, Александра О`Хара, Виолет О`Хара, Вэленс Томас, Хлоя Сонненфельд, Лэнни Флаэрти, Джонатан О`Хара, Рик Бэйкер, Джо Д`Онофрио, Джозеф Р. Ганнасколи, Кэти Фрейм, Кевин Таунли, Стефен Брайан Джонс, Тайлер Джонсо
Описание: Агент Джей узнает, что никакого защитного галактического щита, способного отразить иноземный удар, не существует. Агент Кей не построил его, потому что был убит в 1969 году. Агент Джей должен совершить путешествие во времени, чтобы спасти Землю и жизнь напарника.
Формат 3d: Anamorph SideBySide
Видео: MPEG-4 AVC, 13.9 Мбит/с, 1920х1040, 23.976 кадр/с
Язык: Русский, украинский, английский (AC3, 6 ch, 448 Кбит/с)

Скриншоты


Инфо файл

Общее
Уникальный идентификатор : 183147252647165531370677148661696922714 (0x89C8E0B8311680EB9AEF950F91FB845A)
Полное имя : E:\Documents and Settings\Admin\Мои документы\Ljudi.v.chernom.3.3D.2012.x264.BDRip.(1080p).mkv
Формат : Matroska
Версия формата : Version 2
Размер файла : 11,5 Гбайт
Продолжительность : 1 ч. 45 м.
Общий поток : 15,5 Мбит/сек
Название фильма : 3DRip/
Дата кодирования : UTC 2012-09-08 18:36:23
Программа кодирования : mkvmerge v3.4.0 ('Rapunzel') сборка от May 15 2010 09:38:20
Библиотека кодирования : libebml v0.8.0 + libmatroska v0.9.0
Видео
Идентификатор : 1
Формат : AVC
Формат/Информация : Advanced Video Codec
Профиль формата : High@L4.1
Параметр CABAC формата : Да
Параметр ReFrames формата : 2 кадра
Идентификатор кодека : V_MPEG4/ISO/AVC
Продолжительность : 1 ч. 45 м.
Битрейт : 13,9 Мбит/сек
Ширина : 1920 пикселей
Высота : 1040 пикселей
Соотношение сторон : 1,85:1
Частота кадров : 23,976 кадра/сек
Цветовое пространство : YUV
Субдискретизация насыщенности : 4:2:0
Битовая глубина : 8 бит
Тип развёртки : Прогрессивная
Бит/(Пиксели*Кадры) : 0.290
Размер потока : 10,3 Гбайт (89%)
Библиотека кодирования : x264 core
Язык : English
Default : Нет
Forced : Нет
Основные цвета : BT.709-5, BT.1361, IEC 61966-2-4, SMPTE RP177
Характеристики трансфера : BT.709-5, BT.1361
Коэффициенты матрицы : BT.709-5, BT.1361, IEC 61966-2-4 709, SMPTE RP177
Аудио #1
Идентификатор : 2
Формат : AC-3
Формат/Информация : Audio Coding 3
Расширение режима : CM (complete main)
Параметр Endianness формата : Big
Идентификатор кодека : A_AC3
Продолжительность : 1 ч. 45 м.
Вид битрейта : Постоянный
Битрейт : 448 Кбит/сек
Каналы : 6 каналов
Расположение каналов : Front: L C R, Side: L R, LFE
Частота : 48,0 КГц
Битовая глубина : 16 бит
Метод сжатия : С потерями
Размер потока : 339 Мбайт (3%)
Заголовок : 3DRip
Язык : Russian
Default : Да
Forced : Нет
Аудио #2
Идентификатор : 3
Формат : AC-3
Формат/Информация : Audio Coding 3
Расширение режима : CM (complete main)
Параметр Endianness формата : Big
Идентификатор кодека : A_AC3
Продолжительность : 1 ч. 45 м.
Вид битрейта : Постоянный
Битрейт : 448 Кбит/сек
Каналы : 6 каналов
Расположение каналов : Front: L C R, Side: L R, LFE
Частота : 48,0 КГц
Битовая глубина : 16 бит
Метод сжатия : С потерями
Размер потока : 339 Мбайт (3%)
Заголовок : 3DRip
Язык : Ukrainian
Default : Нет
Forced : Нет
Аудио #3
Идентификатор : 4
Формат : AC-3
Формат/Информация : Audio Coding 3
Расширение режима : CM (complete main)
Параметр Endianness формата : Big
Идентификатор кодека : A_AC3
Продолжительность : 1 ч. 45 м.
Вид битрейта : Постоянный
Битрейт : 448 Кбит/сек
Каналы : 6 каналов
Расположение каналов : Front: L C R, Side: L R, LFE
Частота : 48,0 КГц
Битовая глубина : 16 бит
Метод сжатия : С потерями
Размер потока : 339 Мбайт (3%)
Заголовок : 3DRip
Язык : English
Default : Нет
Forced : Нет
Меню
00:00:00.000 : en:(01)00:00:00:000
00:06:09.577 : en:(02)00:06:09:577
00:11:27.478 : en:(03)00:11:27:478
00:16:58.809 : en:(04)00:16:58:809
00:22:36.229 : en:(05)00:22:36:229
00:31:24.632 : en:(06)00:31:24:632
00:37:36.420 : en:(07)00:37:36:420
00:42:43.018 : en:(08)00:42:43:018
00:48:55.849 : en:(09)00:48:55:849
00:53:58.234 : en:(10)00:53:58:234
00:59:27.772 : en:(11)00:59:27:772
01:05:52.782 : en:(12)01:05:52:782
01:11:56.311 : en:(13)01:11:56:311
01:19:50.619 : en:(14)01:19:50:619
01:27:57.063 : en:(15)01:27:57:063
01:35:30.683 : en:(16)01:35:30:683
Благодарности релизеру (4)

Торрент:

Статус:

Размер:

Зарегистрирован   [ 2012-09-09 09:57 ]

поглощено

11.49 GB