Торренты   
 
 


Люди в черном 3 / Men in Black 3 (Барри Зонненфельд) [2012 г., Anamorph OverUnder]

Рейтинг 3D:
Пока никто не голосовал
Рейтинг фильма:
Пока никто не голосовал
 
Вы должны быть авторизированы,
чтобы ставить оценки


Люди в черном 3 / Men in Black 3
Год выпуска: 2012
Страна: США
Жанр: фантастика, боевик, комедия, приключения
Продолжительность: 1:45:49
Перевод: Профессиональный (полное дублирование)
Режиссер: Барри Зонненфельд
В ролях: Уилл Смит, Джош Бролин, Томми Ли Джонс, Джемейн Клемент, Майкл Стулбарг, Эмма Томпсон, Элис Ив, Майк Колтер, Билл Хэйдер, Майкл Чернус
Описание: Агент Джей узнает, что никакого защитного галактического щита, способного отразить иноземный удар, не существует. Агент Кей не построил его, потому что был убит в 1969 году. Агент Джей должен совершить путешествие во времени, чтобы спасти Землю и жизнь напарника.
Страна: США
Формат 3d: Anamorph OverUnder
Видео: 15.0 Mбит/с, 1920x1080, 23.976 кадр/с Вертикальная анаморфная стереопара
Звук: AC3, 5.1, 640 Кбит/сек, 48,0 КГц |Дубляж|
Субтитры: Русские

MediaInfo:

Format : Matroska
Format version : Version 2
File size : 11.8 GiB
Duration : 1h 45mn
Overall bit rate : 16.0 Mbps
Encoded date : UTC 2012-09-10 12:59:02
Writing application : mkvmerge v5.8.0 ('No Sleep / Pillow') built on Sep 2 2012 15:37:04
Writing library : libebml v1.2.3 + libmatroska v1.3.0
Video
ID : 1
Format : AVC
Format/Info : Advanced Video Codec
Format profile : High@L4.1
Format settings, CABAC : Yes
Format settings, ReFrames : 4 frames
Codec ID : V_MPEG4/ISO/AVC
Duration : 1h 45mn
Bit rate : 15.1 Mbps
Width : 1 920 pixels
Height : 1 080 pixels
Display aspect ratio : 16:9
Frame rate : 23.976 fps
Color space : YUV
Chroma subsampling : 4:2:0
Bit depth : 8 bits
Scan type : Progressive
Bits/(Pixel*Frame) : 0.303
Stream size : 11.1 GiB (94%)
Writing library : x264 core
Language : English
Color primaries : BT.709-5, BT.1361, IEC 61966-2-4, SMPTE RP177
Transfer characteristics : BT.709-5, BT.1361
Matrix coefficients : BT.709-5, BT.1361, IEC 61966-2-4 709, SMPTE RP177
Audio
ID : 2
Format : AC-3
Format/Info : Audio Coding 3
Mode extension : CM (complete main)
Codec ID : A_AC3
Duration : 1h 45mn
Bit rate mode : Constant
Bit rate : 640 Kbps
Channel(s) : 6 channels
Channel positions : Front: L C R, Side: L R, LFE
Sampling rate : 48.0 KHz
Bit depth : 16 bits
Compression mode : Lossy
Stream size : 484 MiB (4%)
Title : dubbled
Language : Russian
Text
ID : 3
Format : UTF-8
Codec ID : S_TEXT/UTF8
Codec ID/Info : UTF-8 Plain Text
Language : Russian
Menu
00:00:00.000 : en:(01)00:00:00:000
00:06:09.577 : en:(02)00:06:09:577
00:11:27.478 : en:(03)00:11:27:478
00:16:58.809 : en:(04)00:16:58:809
00:22:36.229 : en:(05)00:22:36:229
00:31:24.632 : en:(06)00:31:24:632
00:37:36.420 : en:(07)00:37:36:420
00:42:43.018 : en:(08)00:42:43:018
00:48:55.849 : en:(09)00:48:55:849
00:53:58.234 : en:(10)00:53:58:234
00:59:27.772 : en:(11)00:59:27:772
01:05:52.782 : en:(12)01:05:52:782
01:11:56.311 : en:(13)01:11:56:311
01:19:50.619 : en:(14)01:19:50:619
01:27:57.063 : en:(15)01:27:57:063
01:35:30.683 : en:(16)01:35:30:683

Скриншоты

Благодарности релизеру (0)

Торрент:

Статус:

Размер:

Зарегистрирован   [ 2012-09-11 17:34 ]

x закрыто

11.85 GB

 
Комментарии:





опять своровал с кинозала рип... ппц и вставил типа photoartdesign.3nx.ru сделали.
 

опять своровал с кинозала рип... ппц и вставил типа photoartdesign.3nx.ru сделали.
Болеешь? Где ты видешь хоть один намёк, на то, что ты утверждаешь и при чем тут
 

есть разница качать этот? чем он лучше предыдущей раздачи??????????????
 

photoartdesign.3nx.ru - это название было в название торрента ( видимо ты его подкорректировал ) а релиз с кинозала Стасика, ты только анг дорогу выкинул вот и все.
 

нафига столько рипов одного фильма ?
 

Все временные быстрорипы вертикального анаморфа закрыты, кроме горизонтального анаморфа (до появления более качественного рипа), появился ручной рип от elephant http://torrents3d.ru/viewtopic.php?t=3148
 

Топик был перенесен из форума Фильмы в форум Архив

Dag13