Торренты   
 
 


Люди в черном 3 / Men in Black 3 (2012) BDRip [IMAX 3D.BDRip ] (Барри Зонненфельд) [2012 г., Anamorph OverUnder]

Рейтинг 3D:
Пока никто не голосовал
Рейтинг фильма:
Пока никто не голосовал
 
Вы должны быть авторизированы,
чтобы ставить оценки


Люди в черном 3 / Men in Black 3 (2012) BDRip [IMAX 3D.BDRip ]

Год выпуска: 2012
Страна: США, Amblin Entertainment, Hemisphere Media Capital, Imagenation Abu Dhabi FZ, Media Magik Entertainment, Parkes/MacDonald Productions
Жанр: Фантастика, боевик, комедия, приключения
Продолжительность: 01:45:50
Перевод: Профессиональный (полное дублирование)
Режиссер: Барри Зонненфельд
В ролях: Уилл Смит, Джош Бролин, Томми Ли Джонс, Джемейн Клемент, Майкл Стулбарг, Эмма Томпсон, Элис Ив, Майк Колтер, Билл Хэйдер, Майкл Чернус, Николь Шерзингер, Дэвид Раш, Кион Янг, Кайен Мартин, Кларк Торелл, Адам Муччи, Том МакКомас, Дуглас Кросби, Вуди Кинг мл., Джек О`Коннелл, Тобиаш Сигал, Джон Шэйвер, Герритт Вэндэрмир, Александра О`Хара, Виолет О`Хара, Вэленс Томас, Хлоя Сонненфельд, Лэнни Флаэрти, Джонатан О`Хара, Рик Бэйкер, Джо Д`Онофрио, Джозеф Р. Ганнасколи, Кэти Фрейм, Кевин Таунли, Стефен Брайан Джонс, Тайлер Джонсо
Описание: Агент Джей узнает, что никакого защитного галактического щита, способного отразить иноземный удар, не существует. Агент Кей не построил его, потому что был убит в 1969 году. Агент Джей должен совершить путешествие во времени, чтобы спасти Землю и жизнь напарника.

Доп. информация

[: MediaInfo
Общее
Уникальный идентификатор : 195709172963819196024521717833167362638 (0x933C3735823A67C1BF4ED68CD5CD5A4E)
Полное имя : C:HD видеоЛюди.в.черном.3-Men.in.Black.3.(2012).[1080p].BDRip.[3D].mkv
Формат : Matroska
Версия формата : Version 2
Размер файла : 14,8 Гбайт
Продолжительность : 1 ч. 45 м.
Общий поток : 20,0 Мбит/сек
Название фильма : 3DRip/
Дата кодирования : UTC 2012-09-09 13:12:51
Программа кодирования : mkvmerge v5.7.0 ('The Whirlwind') built on Aug 7 2012 14:11:40
Библиотека кодирования : libebml v1.2.3 + libmatroska v1.3.0
Видео
Идентификатор : 1
Формат : AVC
Формат/Информация : Advanced Video Codec
Профиль формата : High@L4.1
Параметр CABAC формата : Да
Параметр ReFrames формата : 2 кадра
Идентификатор кодека : V_MPEG4/ISO/AVC
Продолжительность : 1 ч. 45 м.
Битрейт : 17,7 Мбит/сек
Ширина : 1920 пикселей
Высота : 1080 пикселей
Соотношение сторон : 16:9
Режим частоты кадров : Постоянный
Частота кадров : 23,976 кадра/сек
Цветовое пространство : YUV
Субдискретизация насыщенности : 4:2:0
Битовая глубина : 8 бит
Тип развёртки : Прогрессивная
Бит/(Пиксели*Кадры) : 0.355
Размер потока : 13,0 Гбайт (88%)
Библиотека кодирования : x264 core
Язык : English
Default : Да
Forced : Нет
Основные цвета : BT.709
Характеристики трансфера : BT.709
Коэффициенты матрицы : BT.709
Аудио #1
Идентификатор : 2
Формат : AC-3
Формат/Информация : Audio Coding 3
Расширение режима : CM (complete main)
Параметр Endianness формата : Big
Идентификатор кодека : A_AC3
Продолжительность : 1 ч. 45 м.
Вид битрейта : Постоянный
Битрейт : 640 Кбит/сек
Каналы : 6 каналов
Расположение каналов : Front: L C R, Side: L R, LFE
Частота : 48,0 КГц
Битовая глубина : 16 бит
Метод сжатия : С потерями
Размер потока : 484 Мбайт (3%)
Заголовок : AC3 5.1 / 640 kbps DUB / Blu-ray CEE
Язык : Russian
Default : Да
Forced : Нет
Аудио #2
Идентификатор : 3
Формат : AC-3
Формат/Информация : Audio Coding 3
Расширение режима : CM (complete main)
Параметр Endianness формата : Big
Идентификатор кодека : A_AC3
Продолжительность : 1 ч. 45 м.
Вид битрейта : Постоянный
Битрейт : 640 Кбит/сек
Каналы : 6 каналов
Расположение каналов : Front: L C R, Side: L R, LFE
Частота : 48,0 КГц
Битовая глубина : 16 бит
Метод сжатия : С потерями
Размер потока : 484 Мбайт (3%)
Заголовок : AC3 5.1 / 640 kbps DUB / Blu-ray CEE
Язык : Ukrainian
Default : Нет
Forced : Нет
Аудио #3
Идентификатор : 4
Формат : AC-3
Формат/Информация : Audio Coding 3
Расширение режима : CM (complete main)
Параметр Endianness формата : Big
Идентификатор кодека : A_AC3
Продолжительность : 1 ч. 45 м.
Вид битрейта : Постоянный
Битрейт : 640 Кбит/сек
Каналы : 6 каналов
Расположение каналов : Front: L C R, Side: L R, LFE
Частота : 48,0 КГц
Битовая глубина : 16 бит
Метод сжатия : С потерями
Размер потока : 484 Мбайт (3%)
Заголовок : AC3 5.1 / 640 kbps
Язык : English
Default : Нет
Forced : Нет
Текст #1
Идентификатор : 5
Формат : UTF-8
Идентификатор кодека : S_TEXT/UTF8
Идентификатор кодека/Информация : UTF-8 Plain Text
Язык : Russian
Default : Нет
Forced : Нет
Текст #2
Идентификатор : 6
Формат : UTF-8
Идентификатор кодека : S_TEXT/UTF8
Идентификатор кодека/Информация : UTF-8 Plain Text
Язык : English
Default : Нет
Forced : Нет
]
Формат 3d: Anamorph OverUnder
Видео: AVC, 1920x1080р, 23.976 fps, 17.7 Mbit/s

Скриншоты



Благодарности релизеру (0)

Торрент:

Статус:

Размер:

Зарегистрирован   [ 2012-09-11 13:03 ]

x закрыто

14.76 GB

 
Комментарии:





а в чем разница IMAX 3D.BDRip от 3D. BDRip?
 

Xa0s
ни в чем, это быстрорип
 

Кто ни будь знает как увеличить скорость отдачи . Может в торрент клиенте есть какие ни будь настройки, а то максимум 150 кб\сек. Скорость инета 10Мб\с
 

alexx-y3
В настройках торрента, есть позиция-скорость. Там есть- колличество слотов отдачи на торрент !
 

alexx-y3
В настройках торрента, есть позиция-скорость. Там есть- колличество слотов отдачи на торрент !
Было 4 слота поставил 8 , скорасть пока не увеличилась. Все остальные раздачи на паузе.
 

Надо убрать в настройках все ограничения по отдаче
 

А Вы уверены что у Вас скорость отдачи 10Мб тариф провайдера какой??
 

чем этот рип отличается от предыдущего???
 

Нормальный рип на трекере только один (появившийся сегодня) - http://torrents3d.ru/viewtopic.php?t=3148
Остальное - ФАБ-рипы.
 

А Вы уверены что у Вас скорость отдачи 10Мб тариф провайдера какой??
Уверен !!! Тариф 10 Мбит. Качает 10 Мбит, а отдача 150 Кбит\сек.
 

Нормальный рип на трекере только один (появившийся сегодня) - http://torrents3d.ru/viewtopic.php?t=3148
Остальное - ФАБ-рипы.
А ты что обе версии смотрел ??? Если нет, то нефиг просто так разглогольствовать.
Я не утверждаю что он лучше, но и что он хуже сказать не могу. Всё познаётся в сравнении.
 

2 alexx-y3
1. Если что, я не "ТЫ".
2. Почитайте-попросвещайтесь на нормальных 3д трекерах. Посмотрите сравнения скринов ФАБа с правильными рипами, и тогда ваш гонор улетучится. Подавляющее большинство 3д-пользователей уже давным давно знают что лучше - однокликовый или правильно сделанный рип!
3. А для начала сделайте, чтобы скрины и постер стали видны.
 

IMAX 3D.BDRip наглая профанация
 

IMAX 3D.BDRip наглая профанация
Почему ?
 

2 alexx-y3
1. Если что, я не "ТЫ".
2. Почитайте-попросвещайтесь на нормальных 3д трекерах. Посмотрите сравнения скринов ФАБа с правильными рипами, и тогда ваш гонор улетучится. Подавляющее большинство 3д-пользователей уже давным давно знают что лучше - однокликовый или правильно сделанный рип!
3. А для начала сделайте, чтобы скрины и постер стали видны.
3. Исправил.
Специально скачаю др релиз и сравню !!!
 

alexx-y3
Не спорьте со спецами.
На этом трекере уже давно сформирован круг людей к мнению которых пользователи прислушиваются. И давно всё перетёрто за фаб рип и правильный рип.
Пора уже ввести за правило указывать в раздачах, что это фаб рип!
Кто нарушает, просьба подкорректировать пост, если это не сделано, то удалять раздачу!
Ash61
Спасибо огромное за подсказку!
 

alexx-y3
Не спорьте со спецами.
На этом трекере уже давно сформирован круг людей к мнению которых пользователи прислушиваются. И давно всё перетёрто за фаб рип и правильный рип.
Пора уже ввести за правило указывать в раздачах, что это фаб рип!
Кто нарушает, просьба подкорректировать пост, если это не сделано, то удалять раздачу!
Ash61
Спасибо огромное за подсказку!
Так я не с кем и не спорил, я писал , что на качестве я не настаиваю, я сам его ещё не смотрел. Я не специалист!!! Просто я скачал с другого трекера, посмотрел что на этом трекере его ещё нет и выложил его сюда. Чтобы просто так на винте не валялся. Я не знаю чего вы так на меня накинулись!!! Кому не нравится не качайте!!! Я для интереса вашу версию тоже скачаю и посмотрю, и если она действительно будет лучше тогда буду качать только ваши релизы.
 

Все временные быстрорипы вертикального анаморфа закрыты, кроме горизонтального анаморфа (пока уникальный), появился ручной рип от elephant http://torrents3d.ru/viewtopic.php?t=3148
 

))..всё, кина не будет, и тут електричество отняли)))
 

Топик был перенесен из форума Фильмы в форум Архив

Dag13