Торренты   
 
 

 

Охотники на ведьм в 3D, Трейлер / Hansel and Gretel: Witch Hunters in 3D, Trailer [2013 г., DCPrip, Anamorph OverUnder]

Рейтинг 3D:
4 голосов
7.8
Рейтинг фильма:
5 голосов
7.2
 
Вы должны быть авторизированы,
чтобы ставить оценки


Охотники на ведьм в 3D, Трейлер
Hansel and Gretel: Witch Hunters in 3D, Trailer
--Год выпуска: 2013
Страна: Германия, США
Жанр: ужасы, боевик, комедия
Продолжительность: 00:01:57--Описание: По сюжету знаменитой сказки, Ганс и Грета оказываются в лесу, куда их заводит отец, чтобы избавиться от детей по требованию мачехи. Брат и сестра попадают в ловушку ведьмы, чей домик построен из сахара и хлебобулочных изделий. Ведьма намерена съесть детей, но тем удаётся убить её, забрать драгоценности и сбежать.
После того случая в пряничном домике проходит 15 лет. Ганс и Грета вырастают и становятся охотниками за ведьмами.--Дополнительная информация: Возрастное ограничение сейчас стали пихать и в трейлеры для кинотеатров, что вовсе не радует (размер DCP больше, а толку мало). Естественно я эту надпись из трейлера убрал.
На этот фильм установлено (почему-то) такое возрастное ограничение:

Скрин:

--Формат 3d: Anamorph OverUnder (левый ракурс верхний)
Качество: DCPrip
Контейнер: mkv
Видео: AVC / 1920х1080 / 24 fps / 9267 Kbps
Аудио: Русский / AC3 / 6 ch / 448 Kbps / 48 KHz--

MediaInfo:

Код:
General
Unique ID                      : 181084085615550141285232199983473712046 (0x883B86BB3263AC648B65B9DD12415BAE)
Complete name                  : L:\_3D\3D-Trailers\_2013\Trailer_HanselAndGretel_WitchHunters(3D)HalfOU-abq.mkv
Format                         : Matroska
Format version                 : Version 2
File size                      : 139 MiB
Duration                       : 1mn 57s
Overall bit rate               : 9 913 Kbps
Encoded date                   : UTC 2012-09-11 21:18:53
Writing application            : mkvmerge v4.0.0 ('The Stars were mine') сборка от Jun  6 2010 16:18:42
Writing library                : libebml v1.0.0 + libmatroska v1.0.0
Video
ID                             : 1
Format                         : AVC
Format/Info                    : Advanced Video Codec
Format profile                 : High@L4.1
Format settings, CABAC         : Yes
Format settings, ReFrames      : 4 frames
Codec ID                       : V_MPEG4/ISO/AVC
Duration                       : 1mn 57s
Bit rate                       : 9 267 Kbps
Width                          : 1 920 pixels
Height                         : 1 080 pixels
Display aspect ratio           : 16:9
Frame rate                     : 24.000 fps
Color space                    : YUV
Chroma subsampling             : 4:2:0
Bit depth                      : 8 bits
Scan type                      : Progressive
Bits/(Pixel*Frame)             : 0.186
Stream size                    : 130 MiB (93%)
Writing library                : x264 core 116 r2074 2641b9e
Encoding settings              : cabac=1 / ref=4 / deblock=1:-3:-3 / analyse=0x3:0x113 / me=umh / subme=9 / psy=1 / psy_rd=1.00:0.15 / mixed_ref=1 / me_range=16 / chroma_me=1 / trellis=2 / 8x8dct=1 / cqm=0 / deadzone=21,11 / fast_pskip=1 / chroma_qp_offset=-3 / threads=6 / sliced_threads=0 / nr=0 / decimate=1 / interlaced=0 / bluray_compat=0 / constrained_intra=0 / bframes=6 / b_pyramid=2 / b_adapt=2 / b_bias=0 / direct=3 / weightb=1 / open_gop=0 / weightp=2 / keyint=240 / keyint_min=24 / scenecut=40 / intra_refresh=0 / rc_lookahead=60 / rc=crf / mbtree=1 / crf=18.0 / qcomp=0.60 / qpmin=0 / qpmax=69 / qpstep=4 / vbv_maxrate=40000 / vbv_bufsize=40000 / crf_max=0.0 / nal_hrd=none / frame-packing=4 / ip_ratio=1.40 / aq=1:0.70
Language                       : English
Default                        : No
Forced                         : No
Audio
ID                             : 2
Format                         : AC-3
Format/Info                    : Audio Coding 3
Mode extension                 : CM (complete main)
Format settings, Endianness    : Big
Codec ID                       : A_AC3
Duration                       : 1mn 57s
Bit rate mode                  : Constant
Bit rate                       : 448 Kbps
Channel(s)                     : 6 channels
Channel positions              : Front: L C R, Side: L R, LFE
Sampling rate                  : 48.0 KHz
Bit depth                      : 16 bits
Compression mode               : Lossy
Stream size                    : 6.28 MiB (5%)
Language                       : Russian
Default                        : Yes
Forced                         : No

Скриншоты

Благодарности релизеру (4)

Торрент:

Статус:

Размер:

Зарегистрирован   [ 2012-09-12 20:18 ]

проверено

139 MB

 
 Мнение о фильме (4)





спасибо, давно искала этот ролик.
 
девочка на облаке Профиль 31-Янв-2013 11:06

спасибо а когда релиз выйдет ? =)
 

благодарен!а когда действительно выйдет?
 

Он уже вышел вот сдесь:http://hdreactor.org/596535-ohotniki-na-vedm-v-3d-h...-2013-bdrip.html
Добавьте пожалуйста!!! пусть люди пользуються!!! И если можно обрезать без черных полос!!!
Заранее спасибо)))