Торренты   
 
 

 

Золушка: Полный вперед! / Cendrillon au Far West [2012 г., BDrip, Anamorph OverUnder]

Рейтинг 3D:
21 голосов
7.3
Рейтинг фильма:
20 голосов
5.7
 
Вы должны быть авторизированы,
чтобы ставить оценки



Золушка: Полный вперед!
Cendrillon au Far West

Год выпуска: 2012
Страна: Франция (Angoa-Agicoa, Backup Films, CNC и др.)
Жанр: мультфильм, комедия, приключения
Продолжительность: 01:25:01
Перевод: Профессиональный (дублированный)
Русские субтитры: нет
Режиссер: Паскаль Эрольд
Сценарий: Паскаль Эрольд
Продюсер: Паскаль Эрольд, Джереми Бурдек, Серж де Пук
Монтаж: Бертран Мейлар
Роли озвучивали:
Александра Лами, Иоланда Моро, Изабель Нанти, Антуан де Кон, Мишель Бужена и др.
Роли дублировали:
Валерия Кудрявцева, Тимур Родригез и др.
Описание:
Представьте себе, что всем известная история Золушки, превращается в анимационную комедию, да еще и снятую в 3D! Вам интересно? А если представить, что Золушка живет в волшебной стране, по которой путешествует русский принц со своей тётей? Еще интереснее? Вас ждут невероятные приключения, похищения и погони, большая дружба, настоящая любовь и… выбитый зуб! И никто, ни злая мачеха со своими дочками, ни разбойники-пираты не смогут помешать Золушке и Принцу обрести свое счастье!
--Релиз группы:

За исходник спасибо

Премьера: 1 июня 2012 (2 августа 2012)



Проверено на встроенном плейере ТВ LG 42LW4500
--
Качество: BDrip
Контейнер: MKV
Формат 3D: Anamorph OverUnder / Вертикальная анаморфная стереопара
Порядок ракурсов: левый ракурс первый
Видео кодек: x264
Аудио кодек: AC3
Видео: AVC / 23,976 fps / 1920х1080p / 14,2 Mbps
Аудио: Русский / AC3 / 48 KHz / 5.1 ch / 640 Kbps

MediaInfo

Код:
Общее
Уникальный идентификатор                 : 206726559473285212548390200893301343076 (0x9B86164D6DDBF7E197720AE677D44364)
Полное имя                               : D:\3D-RuGroup\Мультфильмы\CendrillonAuFarWest.3D.2012.BD3DRip.Half.OU.x264.AC3.3D-RuGroup.mkv
Формат                                   : Matroska
Версия формата                           : Version 2
Размер файла                             : 8,57 Гбайт
Продолжительность                        : 1 ч. 21 м.
Общий поток                              : 15,1 Мбит/сек
Название фильма                          : Cendrillon au Far West release 3D-RuGroup rip by itsamna aka elephant
Дата кодирования                         : UTC 2012-09-13 13:48:35
Программа кодирования                    : mkvmerge v3.4.0 ('Rapunzel') сборка от May 15 2010 09:38:20
Библиотека кодирования                   : libebml v0.8.0 + libmatroska v0.9.0
Видео
Идентификатор                            : 1
Формат                                   : AVC
Формат/Информация                        : Advanced Video Codec
Профиль формата                          : High@L4.1
Параметр CABAC формата                   : Да
Параметр ReFrames формата                : 4 кадра
Идентификатор кодека                     : V_MPEG4/ISO/AVC
Продолжительность                        : 1 ч. 21 м.
Битрейт                                  : 14,2 Мбит/сек
Ширина                                   : 1920 пикселей
Высота                                   : 1080 пикселей
Соотношение сторон                       : 16:9
Частота кадров                           : 23,976 кадра/сек
Цветовое пространство                    : YUV
Субдискретизация насыщенности            : 4:2:0
Битовая глубина                          : 8 бит
Тип развёртки                            : Прогрессивная
Бит/(Пиксели*Кадры)                      : 0.285
Размер потока                            : 8,04 Гбайт (94%)
Библиотека кодирования                   : x264 core 125 r2208 d9d2288
Настройки программы                      : cabac=1 / ref=4 / deblock=1:-3:-3 / analyse=0x3:0x133 / me=umh / subme=9 / psy=1 / psy_rd=1.05:0.15 / mixed_ref=1 / me_range=32 / chroma_me=1 / trellis=2 / 8x8dct=1 / cqm=0 / deadzone=21,11 / fast_pskip=0 / chroma_qp_offset=-3 / threads=3 / lookahead_threads=1 / sliced_threads=0 / nr=0 / decimate=1 / interlaced=0 / bluray_compat=0 / constrained_intra=0 / bframes=7 / b_pyramid=2 / b_adapt=2 / b_bias=0 / direct=3 / weightb=1 / open_gop=0 / weightp=2 / keyint=250 / keyint_min=23 / scenecut=40 / intra_refresh=0 / rc_lookahead=60 / rc=crf / mbtree=1 / crf=18.0 / qcomp=0.90 / qpmin=0 / qpmax=69 / qpstep=4 / vbv_maxrate=50000 / vbv_bufsize=50000 / crf_max=0.0 / nal_hrd=none / ip_ratio=1.40 / aq=1:0.90
Default                                  : Да
Forced                                   : Нет
Аудио
Идентификатор                            : 2
Формат                                   : AC-3
Формат/Информация                        : Audio Coding 3
Расширение режима                        : CM (complete main)
Идентификатор кодека                     : A_AC3
Продолжительность                        : 1 ч. 21 м.
Вид битрейта                             : Постоянный
Битрейт                                  : 640 Кбит/сек
Каналы                                   : 6 каналов
Расположение каналов                     : Front: L C R, Side: L R, LFE
Частота                                  : 48,0 КГц
Битовая глубина                          : 16 бит
Метод сжатия                             : С потерями
Размер потока                            : 371 Мбайт (4%)
Заголовок                                : Dub
Язык                                     : Russian
Default                                  : Да
Forced                                   : Нет
Меню
00:00:00.000                             : :01
00:07:06.259                             : :02
00:14:53.267                             : :03
00:21:25.201                             : :04
00:29:59.589                             : :05
00:37:09.018                             : :06
00:43:53.047                             : :07
00:52:31.106                             : :08
01:00:28.124                             : :09
01:07:26.834                             : :10
01:17:16.340                             : :11
01:17:36.360                             : :12
01:18:37.963                             : :13

Скриншоты

Остальные раздачи этого фильма (3)
Благодарности релизеру (25)

Торрент:

Статус:

Размер:

Зарегистрирован   [ 2012-09-13 18:35 ]

проверено

8.57 GB

 
 Мнение о фильме (3)





Хороший мультфильм, племяннице очень понравился, сидела в очках-довольная. Говорит я как в кинотеатре. Спасибо за раздачу.
 

Мультик - на один раз. Качество 3D на высоте - отличный объем и глубина, без вылетов но всеравно красиво.
 

ужасный мульт!даже не хотелось до конца досматривать.