Торренты   
 
 

 

От винта [2012, BDrip, half1080p, Anamorph OverUnder]

Рейтинг 3D:
6 голосов
3.8
Рейтинг фильма:
6 голосов
4.0
 
Вы должны быть авторизированы,
чтобы ставить оценки


-От винта Год выпуска: 2012
Страна: Россия (Продюсерский центр «Парадиз»)
Жанр: Мультфильм, Комедия, Приключения
Продолжительность: 01:26:57
Перевод: Не требуется
Режиссер: Ольга Лопато-Роли озвучивали: Алексей Франдетти, Антонина Березка, Валентин Гафт, Александр Головин, Андрей Мерзликин, Анфиса Чехова, Александр Семчев, Александр Леньков, Александр Ильин старший, Илья Хвостиков, Владимир Тягичев, Виктор Власов, Валерий Скорокосов, Игорь Сыхра.-Описание: За несколько недель до грандиозного авиашоу юный истребитель СУ-27 по имени Витязь поступает в ученики к самолетам-корифеям, которые берутся подготовить его к соревнованию. Но Витязь забывает о занятиях, когда по уши влюбляется в очаровательный легкий самолет Молнию, не подозревая, что она — помощница жестокого и злого истребителя Грома, который мечтает расправиться с Витязем. Сможет ли Витязь завоевать любовь Молнии? Успеет ли разрушить коварные планы Грома? И главное — станет ли Витязь победителем авиашоу?
Доп. информация: Часть эпизодов идёт в чистом 2Д (даже не в псевдо 3д). Каков процент времени 2Д эпизодов - не могу сказать. Этот фильм нельзя назвать 3Д-фейком. Там где оно присутствует, там оно хорошее (имхо). Я бы назвал этот фильм 3Д-халтурой (поскольку нигде не указывается, что присутствуют 2Д-эпизоды, и весьма немалый процент). :)
Смотрите скрины под спойлером "Для оценки качества 3Д...". Где нет красно-голубого двоения - это чистейшее 2Д.
Сценаристом является режиссёр "Кукарачи" Армен Адилханян (со своей же "командой").
Чёрные полосы сверху-снизу есть!--За исходник большое спасибо и amazon!Премьера: 9 августа 2012
. .
Проверено на встроенном плейере ТВ Samsung UE-C7000--Формат 3d: Anamorph OverUnder
Качество: BDrip
Контейнер: MKV-Видео: AVC / 23,976 fps / 1920х1080p / 6015 Kbps
Аудио: Русский / AC3 / 48 KHz / 5.1 ch / 640 Kbps
Субтитры: Отсутствуют

MediaInfo и Лог


General
UniqueID : 208127659935919369411707423798340231513 (0x9C93EDE37F4E0547938DF34EFEE62159)
Complete name : F:\Downloads\OtVinta(3D)2012.halfOU(Ash61).mkv
Format : Matroska
File size : 4.13 GiB
Duration : 1h 26mn
Overall bit rate : 6 790 Kbps
Movie name : От винта (3D) 2012 (by Ash61)
Encoded date : UTC 2012-09-13 12:31:16
Writing application : mkvmerge v3.4.0 ('Rapunzel') сборка от May 15 2010 09:38:20
Writing library : libebml v0.8.0 + libmatroska v0.9.0
Video
ID : 1
Format : AVC
Format/Info : Advanced Video Codec
Format profile : High@L4.1
Format settings, CABAC : Yes
Format settings, ReFrames : 4 frames
Codec ID : V_MPEG4/ISO/AVC
Duration : 1h 26mn
Bit rate : 6 015 Kbps
Width : 1 920 pixels
Height : 1 080 pixels
Display aspect ratio : 16:9
Frame rate : 23.976 fps
Color space : YUV
Chroma subsampling : 4:2:0
Bit depth : 8 bits
Scan type : Progressive
Bits/(Pixel*Frame) : 0.121
Stream size : 3.65 GiB (89%)
Title : BDrip by Ash61
Writing library : x264 core 119 r2106 07efeb4
Encoding settings : cabac=1 / ref=4 / deblock=1:-3:-3 / analyse=0x3:0x113 / me=umh / subme=9 / psy=1 / psy_rd=1.00:0.15 / mixed_ref=1 / me_range=16 / chroma_me=1 / trellis=2 / 8x8dct=1 / cqm=0 / deadzone=21,11 / fast_pskip=1 / chroma_qp_offset=-3 / threads=3 / sliced_threads=0 / nr=0 / decimate=1 / interlaced=0 / bluray_compat=0 / constrained_intra=0 / bframes=6 / b_pyramid=2 / b_adapt=2 / b_bias=0 / direct=3 / weightb=1 / open_gop=0 / weightp=2 / keyint=250 / keyint_min=23 / scenecut=40 / intra_refresh=0 / rc_lookahead=60 / rc=crf / mbtree=1 / crf=17.0 / qcomp=0.70 / qpmin=0 / qpmax=69 / qpstep=4 / vbv_maxrate=40000 / vbv_bufsize=40000 / crf_max=0.0 / nal_hrd=none / frame-packing=4 / ip_ratio=1.40 / aq=1:0.70
Language : Russian
Audio
ID : 2
Format : AC-3
Format/Info : Audio Coding 3
Mode extension : CM (complete main)
Codec ID : A_AC3
Duration : 1h 26mn
Bit rate mode : Constant
Bit rate : 640 Kbps
Channel(s) : 6 channels
Channel positions : Front: L C R, Side: L R, LFE
Sampling rate : 48.0 KHz
Bit depth : 16 bits
Compression mode : Lossy
Stream size : 398 MiB (9%)
Title : Оригинал
Language : Russian
Menu
00:00:00.000 : :1
00:03:26.957 : :2
00:10:34.467 : :3
00:20:08.499 : :4
00:29:56.586 : :5
00:40:08.156 : :6
00:46:49.223 : :7
00:54:13.625 : :8
01:02:37.963 : :9
01:10:17.130 : :10
01:16:16.614 : :11
01:23:35.552 : :12

Для оценки качества 3Д - Чёрно-белые скрины в анаглифе

Остальные раздачи этого фильма (2)
Благодарности релизеру (13)

Торрент:

Статус:

Размер:

Зарегистрирован   [ 2012-09-13 19:36 ]

проверено

4.13 GB