Торренты   
 
 

 

IMAX - Мумии: Секреты фараонов 3D / IMAX - Mummies: Secrets of the Pharaohs (Кейт Мелтон) [2007 г., Anamorph OverUnder]

Рейтинг 3D:
7 голосов
7.7
Рейтинг фильма:
5 голосов
8.0
 
Вы должны быть авторизированы,
чтобы ставить оценки


IMAX - Мумии: Секреты фараонов 3D / IMAX - Mummies: Secrets of the Pharaohs
Год выпуска: 2007
Страна: США, Giant Screen Films, Gravity Pictures
Жанр: Документальный, научно-позновательный, семейный, биография
Продолжительность: 00:38:41
Перевод: Любительский (одноголосый)
Режиссер: Кейт Мелтон
В ролях: Элана Драго, Уильям Хоуп, Нассер Мемарзиа, Криспин Редмен, Дауд Шах, Борис Терраль
Описание: Вы переноситесь в увлекательный и красивый мир древнего Египта. Это археологическое и научное приключение по следам исследователей и первооткрывателей, из рассказа которых складывается представление о культуре древнего Египта, о секретах мумий, о генетических находках.
Формат 3d: Anamorph OverUnder
Видео: MPEG-4 AVC, 12.8 Mбит/с, 1920x1080, 23.976 кадра/с
Аудио: Русский (AC3, 6 ch, 640 Кбит/c), (DTS, 6 ch, 768 Кбит/c), английский (DTS-HD, 6 ch, 1943 Кбит/c)

Инфо файл

Общее
Уникальный идентификатор : 253992121348335521925617153351153593745 (0xBF151A6C40EF1D50B4454B933267AD91)
Полное имя : E:\Documents and Settings\Admin\Мои документы\Mumii.Sekrety.Faraonov.2007.x264.BDRip.(1080p).mkv
Формат : Matroska
Версия формата : Version 2
Размер файла : 4,33 Гбайт
Продолжительность : 38 м.
Режим общего битрейта : Переменный
Общий поток : 16,0 Мбит/сек
Название фильма : 3DRip-by-kinozal.tv
Дата кодирования : UTC 2012-09-15 11:07:23
Программа кодирования : mkvmerge v3.4.0 ('Rapunzel') сборка от May 15 2010 09:38:20
Библиотека кодирования : libebml v0.8.0 + libmatroska v0.9.0
Видео
Идентификатор : 1
Формат : AVC
Формат/Информация : Advanced Video Codec
Профиль формата : High@L4.1
Параметр CABAC формата : Да
Параметр ReFrames формата : 4 кадра
Идентификатор кодека : V_MPEG4/ISO/AVC
Продолжительность : 38 м.
Битрейт : 12,8 Мбит/сек
Ширина : 1920 пикселей
Высота : 1080 пикселей
Соотношение сторон : 16:9
Частота кадров : 23,976 кадра/сек
Цветовое пространство : YUV
Субдискретизация насыщенности : 4:2:0
Битовая глубина : 8 бит
Тип развёртки : Прогрессивная
Бит/(Пиксели*Кадры) : 0.256
Размер потока : 3,45 Гбайт (80%)
Заголовок : 3DRip-by-kinozal.tv
Библиотека кодирования : x264 core
Default : Да
Forced : Нет
Основные цвета : BT.709-5, BT.1361, IEC 61966-2-4, SMPTE RP177
Характеристики трансфера : BT.709-5, BT.1361
Коэффициенты матрицы : BT.709-5, BT.1361, IEC 61966-2-4 709, SMPTE RP177
Аудио #1
Идентификатор : 2
Формат : AC-3
Формат/Информация : Audio Coding 3
Расширение режима : CM (complete main)
Параметр Endianness формата : Big
Идентификатор кодека : A_AC3
Продолжительность : 38 м.
Вид битрейта : Постоянный
Битрейт : 640 Кбит/сек
Каналы : 6 каналов
Расположение каналов : Front: L C R, Side: L R, LFE
Частота : 48,0 КГц
Битовая глубина : 16 бит
Метод сжатия : С потерями
Размер потока : 177 Мбайт (4%)
Заголовок : 3DRip-by-kinozal.tv
Язык : Russian
Default : Да
Forced : Нет
Аудио #2
Идентификатор : 3
Формат : DTS
Формат/Информация : Digital Theater Systems
Профиль формата : MA / Core
Идентификатор кодека : A_DTS
Продолжительность : 38 м.
Вид битрейта : Переменный
Битрейт : 1561 Кбит/сек / 1510 Кбит/сек
Каналы : 6 каналов
Расположение каналов : Front: L C R, Side: L R, LFE
Частота : 48,0 КГц
Битовая глубина : 16 бит
Метод сжатия : Без потерь / Lossy
Заголовок : 3DRip-by-kinozal.tv
Язык : English
Default : Нет
Forced : Нет
Аудио #3
Идентификатор : 4
Формат : DTS
Формат/Информация : Digital Theater Systems
Идентификатор кодека : A_DTS
Продолжительность : 38 м.
Вид битрейта : Постоянный
Битрейт : 755 Кбит/сек
Каналы : 6 каналов
Расположение каналов : Front: L C R, Side: L R, LFE
Частота : 48,0 КГц
Битовая глубина : 16 бит
Метод сжатия : С потерями
Размер потока : 209 Мбайт (5%)
Заголовок : 3DRip-by-kinozal.tv
Язык : Russian
Default : Нет
Forced : Нет
Меню
00:00:00.000 : en:(01)00:00:00:000
00:02:34.696 : en:(02)00:02:34:696
00:04:25.807 : en:(03)00:04:25:807
00:06:48.533 : en:(04)00:06:48:533
00:10:10.192 : en:(05)00:10:10:192
00:11:47.748 : en:(06)00:11:47:748
00:14:21.277 : en:(07)00:14:21:277
00:15:21.086 : en:(08)00:15:21:086
00:16:51.301 : en:(09)00:16:51:301
00:18:51.463 : en:(10)00:18:51:463
00:21:26.034 : en:(11)00:21:26:034
00:23:05.842 : en:(12)00:23:05:842
00:25:55.136 : en:(13)00:25:55:136
00:27:33.151 : en:(14)00:27:33:151
00:29:18.173 : en:(15)00:29:18:173
00:32:39.040 : en:(16)00:32:39:040
00:34:22.810 : en:(17)00:34:22:810
00:35:01.140 : en:(18)00:35:01:140
00:38:41.569 : en:(19)00:38:41:569

Скриншоты


Благодарности релизеру (11)

Торрент:

Статус:

Размер:

Зарегистрирован   [ 2012-09-16 13:06 ]

* не проверено

4.33 GB