Торренты   
 
 


Призраки бездны: Титаник / Ghosts of the Abyss (Джеймс Кэмерон) [2003 г., Full OverUnder]

Рейтинг 3D:
1 голосов
6.0
Рейтинг фильма:
2 голосов
9.5
 
Вы должны быть авторизированы,
чтобы ставить оценки


Призраки бездны: Титаник / Ghosts of the Abyss
Год выпуска: 2003
Страна: США
Студия: Walt Disney Pictures, Earthship Productions, Walde
Жанр: документальный, семейный
Продолжительность: 01:00:44
Перевод: Многоголосый закадровый
Режиссер: Джеймс Кэмерон
В ролях: Билл Пэкстон, Др. Джон Бродвотер, Др. Лори Джонстон, Чарльз Пеллегрино, Дон Линч, Кен Маршалл, Джеймс Кэмерон, Майк Кэмерон, Джеффри Н. Ледда
Описание: Джеймс Кэмерон расcказывает подлинную историю легендарного «Титаника». Подготовка к уникальным подводным съемкам велась долгих три года, за которые были собраны новейшие технологические ресурсы и составлена команда высококлассных профессионалов, в которую помимо съемочной группы вошли известные историки и океанологи.
ВНИМАНИЕ ! :На встроенных ТВ-плейерах работать не будет!!!
Качество: BDrip
Контейнер: MKV
Формат 3D: OverUnder / Вертикальная стереопара
Порядок ракурсов: левый ракурс первый
Видео кодек: x264
Аудио кодек: AC3
Видео: AVC / 23,976 fps / 1920х2160 / 31.5 Mbps
Аудио: Русский / AC3 / 48 KHz / 5.1 ch / 640 Kbps
Аудио 2: Английский / AC3 / 48 KHz / 5.1 ch / 640 Kbps
Субтитры: отсутствуют
Сэмпл : http://rusfolder.com/32419201

MediaInfo

General
Unique ID : 170868842518332008707880102440091292051 (0x808C245C877CB0DCBA98D34095C49193)
Complete name : L:\ФИЛЬМЫ\Ghosts of the Abyss.3D.mkv
Format : Matroska
Format version : Version 2
File size : 14.2 GiB
Duration : 1h 0mn
Overall bit rate : 33.5 Mbps
Encoded date : UTC 2012-09-02 06:57:07
Writing application : mkvmerge v3.4.0 ('Rapunzel') сборка от May 15 2010 09:38:20
Writing library : libebml v0.8.0 + libmatroska v0.9.0
Video
ID : 1
Format : AVC
Format/Info : Advanced Video Codec
Format profile : High@L5.0
Format settings, CABAC : Yes
Format settings, ReFrames : 4 frames
Codec ID : V_MPEG4/ISO/AVC
Duration : 1h 0mn
Bit rate : 31.5 Mbps
Width : 1 920 pixels
Height : 2 160 pixels
Display aspect ratio : 0.889
Frame rate : 23.976 fps
Color space : YUV
Chroma subsampling : 4:2:0
Bit depth : 8 bits
Scan type : Progressive
Bits/(Pixel*Frame) : 0.317
Stream size : 13.4 GiB (94%)
Title : Rip by SeRoGa00
Writing library : x264 core 125 r2208 d9d2288
Encoding settings : cabac=1 / ref=4 / deblock=1:-1:-1 / analyse=0x3:0x133 / me=umh / subme=9 / psy=1 / psy_rd=1.00:0.15 / mixed_ref=1 / me_range=16 / chroma_me=1 / trellis=2 / 8x8dct=1 / cqm=0 / deadzone=21,11 / fast_pskip=1 / chroma_qp_offset=-3 / threads=12 / lookahead_threads=2 / sliced_threads=0 / nr=0 / decimate=1 / interlaced=0 / bluray_compat=0 / constrained_intra=0 / bframes=6 / b_pyramid=2 / b_adapt=2 / b_bias=0 / direct=3 / weightb=1 / open_gop=0 / weightp=2 / keyint=250 / keyint_min=23 / scenecut=40 / intra_refresh=0 / rc_lookahead=60 / rc=crf / mbtree=1 / crf=18.0 / qcomp=0.60 / qpmin=10 / qpmax=69 / qpstep=4 / vbv_maxrate=40000 / vbv_bufsize=40000 / crf_max=0.0 / nal_hrd=none / ip_ratio=1.40 / aq=1:1.00
Language : English
Default : Yes
Forced : No
Audio #1
ID : 2
Format : AC-3
Format/Info : Audio Coding 3
Mode extension : CM (complete main)
Format settings, Endianness : Big
Codec ID : A_AC3
Duration : 1h 0mn
Bit rate mode : Constant
Bit rate : 640 Kbps
Channel(s) : 6 channels
Channel positions : Front: L C R, Side: L R, LFE
Sampling rate : 48.0 KHz
Bit depth : 16 bits
Compression mode : Lossy
Stream size : 278 MiB (2%)
Language : Russian
Default : Yes
Forced : No
Audio #2
ID : 3
Format : AC-3
Format/Info : Audio Coding 3
Mode extension : CM (complete main)
Format settings, Endianness : Big
Codec ID : A_AC3
Duration : 1h 0mn
Bit rate mode : Constant
Bit rate : 640 Kbps
Channel(s) : 6 channels
Channel positions : Front: L C R, Side: L R, LFE
Sampling rate : 48.0 KHz
Bit depth : 16 bits
Compression mode : Lossy
Stream size : 278 MiB (2%)
Language : English
Default : No
Forced : No

Скриншоты


Благодарности релизеру (3)

Торрент:

Статус:

Размер:

Зарегистрирован   [ 2012-09-16 18:05 ]

проверено

14.21 GB