Торренты   
 
 

 

Пирaты! Бaнда неудaчников / The Pirаtes! Bаnd of Мisfits (Питер Лорд) [2012 г., Anaglyph, red'cyan]

Рейтинг 3D:
13 голосов
7.3
Рейтинг фильма:
10 голосов
7.5
 
Вы должны быть авторизированы,
чтобы ставить оценки


Пирaты! Бaнда неудaчников / The Pirаtes! Bаnd of Мisfits
Год выпуска: 2012
Страна: США, Великобритания
Жанр: Мультфильм, Комедия, Приключения, Семейный
Продолжительность: 01:28:04
Перевод: Профессиональный (полное дублирование)
Режиссер на русском: Питер Лорд, Джефф Ньюитт
Режиссер на английском:Peter Lord, Jeff Newitt
Роли озвучивали / Дублировали: Пиратский Капитан - Хью Грант / Илья Хвостиков
Пират с шарфом - Мартин Фриман
Королева Виктория - Имелда Стонтон
Чарльз Дарвин - Дэвид Теннант / Леонид Барац
Чёрный Беллами - Джереми Пивен / Камиль Ларин
Катласс Лиз - Сальма Хайек
Гастингс "Деревянная Нога" - Ленни Генри / Пётр Иващенко
Король пиратов - Брайан Блессид
Пират-альбинос - Антон Ельчин / Диомид Виноградов
Пират с подагрой - Брендан Глисон
Фигуристый пират - Эшли Дженсен
Пират, любящий закаты и котят - Эл Рокер
Адмирал Коллингвуд - Майк Купер
Скарлетт Морган - Дэвид Шнайдер
Описание: Экранизация первой книги из серии романов писателя Гидеона Дефо, рассказывающих о банде незадачливых пиратов. В первой части пираты прибывают в Лондон, где знакомятся с молодым Чарльзом Дарвином и говорящим шимпанзе по имени Мистер Бобо, а также столкнутся с врагами, которые хотят их уничтожить.
ВНИМАНИЕ!:Для просмотра 3D требуются анаглифные очки (красно-голубые)

Качество: BDrip
Контейнер: MKV
Формат 3D: Анаглиф red-cyan
Видео кодек: x264
Аудио кодек: AC3
Видео: AVC / 23,976 fps / 1920х1080p / 5861 Kbps
Аудио: Русский /AC3 / 48 KHz / 5.1 ch / 448 Kbps
Аудио 2: Украинский / AC3 / 48 KHz / 5.1 ch / 448 Kbps
Аудио 3: Английский / AC3 / 48 KHz / 5.1 ch / 640 Kbps

MediaInfo

General
Unique ID : 172879888482876400421074811563367130623 (0x820F74952B74D0AFA93C2DCA510AE5FF)
Complete name : J:\Фильмы\3Д\The Pirаtes! Bаnd of Мisfits 3D.mkv
Format : Matroska
Format version : Version 2
File size : 4.64 GiB
Duration : 1h 28mn
Overall bit rate : 7 547 Kbps
Encoded date : UTC 2012-08-14 09:30:44
Writing application : mkvmerge v3.4.0 ('Rapunzel') сборка от May 15 2010 09:38:20
Writing library : libebml v0.8.0 + libmatroska v0.9.0
Video
ID : 1
Format : AVC
Format/Info : Advanced Video Codec
Format profile : High@L4.1
Format settings, CABAC : Yes
Format settings, ReFrames : 4 frames
Codec ID : V_MPEG4/ISO/AVC
Duration : 1h 28mn
Bit rate : 5 861 Kbps
Width : 1 920 pixels
Height : 1 080 pixels
Display aspect ratio : 16:9
Frame rate : 23.976 fps
Color space : YUV
Chroma subsampling : 4:2:0
Bit depth : 8 bits
Scan type : Progressive
Bits/(Pixel*Frame) : 0.118
Stream size : 3.61 GiB (78%)
Title : Rip by SeRoGa00
Writing library : x264 core 125 r2208 d9d2288
Encoding settings : cabac=1 / ref=4 / deblock=1:-1:-1 / analyse=0x3:0x133 / me=umh / subme=9 / psy=1 / psy_rd=1.00:0.15 / mixed_ref=1 / me_range=16 / chroma_me=1 / trellis=2 / 8x8dct=1 / cqm=0 / deadzone=21,11 / fast_pskip=1 / chroma_qp_offset=-3 / threads=12 / lookahead_threads=2 / sliced_threads=0 / nr=0 / decimate=1 / interlaced=0 / bluray_compat=0 / constrained_intra=0 / bframes=6 / b_pyramid=2 / b_adapt=2 / b_bias=0 / direct=3 / weightb=1 / open_gop=0 / weightp=2 / keyint=250 / keyint_min=23 / scenecut=40 / intra_refresh=0 / rc_lookahead=60 / rc=crf / mbtree=1 / crf=18.0 / qcomp=0.60 / qpmin=10 / qpmax=69 / qpstep=4 / vbv_maxrate=40000 / vbv_bufsize=40000 / crf_max=0.0 / nal_hrd=none / ip_ratio=1.40 / aq=1:1.00
Language : English
Default : Yes
Forced : No
Audio #1
ID : 2
Format : AC-3
Format/Info : Audio Coding 3
Mode extension : CM (complete main)
Format settings, Endianness : Big
Codec ID : A_AC3
Duration : 1h 28mn
Bit rate mode : Constant
Bit rate : 448 Kbps
Channel(s) : 6 channels
Channel positions : Front: L C R, Side: L R, LFE
Sampling rate : 48.0 KHz
Bit depth : 16 bits
Compression mode : Lossy
Stream size : 282 MiB (6%)
Language : Russian
Default : Yes
Forced : No
Audio #2
ID : 3
Format : AC-3
Format/Info : Audio Coding 3
Mode extension : CM (complete main)
Format settings, Endianness : Big
Codec ID : A_AC3
Duration : 1h 28mn
Bit rate mode : Constant
Bit rate : 448 Kbps
Channel(s) : 6 channels
Channel positions : Front: L C R, Side: L R, LFE
Sampling rate : 48.0 KHz
Bit depth : 16 bits
Compression mode : Lossy
Stream size : 282 MiB (6%)
Language : Ukrainian
Default : No
Forced : No
Audio #3
ID : 4
Format : AC-3
Format/Info : Audio Coding 3
Mode extension : CM (complete main)
Format settings, Endianness : Big
Codec ID : A_AC3
Duration : 1h 28mn
Bit rate mode : Constant
Bit rate : 640 Kbps
Channel(s) : 6 channels
Channel positions : Front: L C R, Side: L R, LFE
Sampling rate : 48.0 KHz
Bit depth : 16 bits
Compression mode : Lossy
Stream size : 403 MiB (8%)
Language : English
Default : No
Forced : No

Скриншоты


Остальные раздачи этого фильма (4)
Благодарности релизеру (0)

Торрент:

Статус:

Размер:

Зарегистрирован   [ 2012-09-17 17:42 ]

проверено

4.64 GB