Торренты   
 
 

 

Пирaты! Бaнда неудaчников / The Pirаtes! Bаnd of Мisfits (Питер Лорд, Джефф Ньюитт) [2012 г.,BDRip 1080p, Full OverUnder]

Рейтинг 3D:
13 голосов
7.3
Рейтинг фильма:
10 голосов
7.5
 
Вы должны быть авторизированы,
чтобы ставить оценки


Пирaты! Бaнда неудaчников / The Pirаtes! Bаnd of Мisfits
Год выпуска: 2012
Страна: США, Великобритания
Жанр: Мультфильм, Комедия, Приключения, Семейный
Продолжительность: 01:28:04
Перевод: Профессиональный (полное дублирование)
Режиссер: Питер Лорд, Джефф Ньюитт
В ролях: Пиратский Капитан - Хью Грант / Илья Хвостиков
Пират с шарфом - Мартин Фриман
Королева Виктория - Имелда Стонтон
Чарльз Дарвин - Дэвид Теннант / Леонид Барац
Чёрный Беллами - Джереми Пивен / Камиль Ларин
Катласс Лиз - Сальма Хайек
Гастингс "Деревянная Нога" - Ленни Генри / Пётр Иващенко
Король пиратов - Брайан Блессид
Пират-альбинос - Антон Ельчин / Диомид Виноградов
Пират с подагрой - Брендан Глисон
Фигуристый пират - Эшли Дженсен
Пират, любящий закаты и котят - Эл Рокер
Адмирал Коллингвуд - Майк Купер
Скарлетт Морган - Дэвид Шнайдер
Описание: Экранизация первой книги из серии романов писателя Гидеона Дефо, рассказывающих о банде незадачливых пиратов. В первой части пираты прибывают в Лондон, где знакомятся с молодым Чарльзом Дарвином и говорящим шимпанзе по имени Мистер Бобо, а также столкнутся с врагами, которые хотят их уничтожить.
Формат 3d: OverUnder
Видео: AVC, High@L5.0, 1920x1632, 23.976 fps, 11,3 Мбит/сек
Аудио: Rus, AC-3, 6 каналов, 448 Кбит/сек, 48,0 КГц
Аудио: Ukr, AC-3, 6 каналов, 448 Кбит/сек, 48,0 КГц
Аудио: Eng, DTS, 6 каналов, 1561 Кбит/сек, 48,0 КГц

Скриншоты




MediaInfo

Общее
Уникальный идентификатор : 234230282194527733901174307474410995606 (0xB0371C871309FB79B5232890C80A7F96)
Полное имя : D:\_Stereo\The Pirаtes_Bаnd of Мisfits 1080p.mkv
Формат : Matroska
Версия формата : Version 2
Размер файла : 8,63 Гбайт
Продолжительность : 1 ч. 28 м.
Режим общего битрейта : Переменный
Общий поток : 14,0 Мбит/сек
Название фильма : Rip by Dag13
Дата кодирования : UTC 2012-09-17 09:40:42
Программа кодирования : mkvmerge v3.4.0 ('Rapunzel') сборка от May 15 2010 09:38:20
Библиотека кодирования : libebml v0.8.0 + libmatroska v0.9.0
Видео
Идентификатор : 1
Формат : AVC
Формат/Информация : Advanced Video Codec
Профиль формата : High@L5.0
Параметр CABAC формата : Да
Параметр ReFrames формата : 4 кадра
Идентификатор кодека : V_MPEG4/ISO/AVC
Продолжительность : 1 ч. 28 м.
Битрейт : 11,3 Мбит/сек
Ширина : 1920 пикселей
Высота : 1632 пикселя
Соотношение сторон : 1,176
Режим частоты кадров : Постоянный
Частота кадров : 23,976 кадра/сек
Цветовое пространство : YUV
Субдискретизация насыщенности : 4:2:0
Битовая глубина : 8 бит
Тип развёртки : Прогрессивная
Бит/(Пиксели*Кадры) : 0.150
Размер потока : 6,94 Гбайт (80%)
Библиотека кодирования : x264 core 120 r2145 748fe16
Настройки программы : cabac=1 / ref=4 / deblock=1:-1:-1 / analyse=0x3:0x113 / me=umh / subme=9 / psy=1 / psy_rd=1.00:0.00 / mixed_ref=1 / me_range=16 / chroma_me=1 / trellis=1 / 8x8dct=1 / cqm=0 / deadzone=21,11 / fast_pskip=1 / chroma_qp_offset=-2 / threads=9 / sliced_threads=0 / nr=0 / decimate=1 / interlaced=0 / bluray_compat=0 / constrained_intra=0 / bframes=6 / b_pyramid=0 / b_adapt=2 / b_bias=0 / direct=3 / weightb=1 / open_gop=0 / weightp=2 / keyint=250 / keyint_min=23 / scenecut=40 / intra_refresh=0 / rc_lookahead=60 / rc=crf / mbtree=1 / crf=18.0 / qcomp=0.60 / qpmin=0 / qpmax=69 / qpstep=4 / ip_ratio=1.40 / aq=1:1.00
Язык : English
Default : Нет
Forced : Нет
Аудио #1
Идентификатор : 2
Формат : AC-3
Формат/Информация : Audio Coding 3
Расширение режима : CM (complete main)
Параметр Endianness формата : Big
Идентификатор кодека : A_AC3
Продолжительность : 1 ч. 28 м.
Вид битрейта : Постоянный
Битрейт : 448 Кбит/сек
Каналы : 6 каналов
Расположение каналов : Front: L C R, Side: L R, LFE
Частота : 48,0 КГц
Битовая глубина : 16 бит
Метод сжатия : С потерями
Размер потока : 282 Мбайт (3%)
Язык : Russian
Default : Да
Forced : Нет
Аудио #2
Идентификатор : 3
Формат : AC-3
Формат/Информация : Audio Coding 3
Расширение режима : CM (complete main)
Параметр Endianness формата : Big
Идентификатор кодека : A_AC3
Продолжительность : 1 ч. 28 м.
Вид битрейта : Постоянный
Битрейт : 448 Кбит/сек
Каналы : 6 каналов
Расположение каналов : Front: L C R, Side: L R, LFE
Частота : 48,0 КГц
Битовая глубина : 16 бит
Метод сжатия : С потерями
Размер потока : 282 Мбайт (3%)
Язык : Ukrainian
Default : Нет
Forced : Нет
Аудио #3
Идентификатор : 4
Формат : DTS
Формат/Информация : Digital Theater Systems
Профиль формата : MA / Core
Идентификатор кодека : A_DTS
Продолжительность : 1 ч. 28 м.
Вид битрейта : Переменный
Битрейт : 1561 Кбит/сек / 1510 Кбит/сек
Каналы : 6 каналов
Расположение каналов : Front: L C R, Side: L R, LFE
Частота : 48,0 КГц
Битовая глубина : 16 бит
Метод сжатия : Без потерь / Lossy
Язык : English
Default : Нет
Forced : Нет
На встроенных ТВ-плейерах показывать НЕ будет!!!
Остальные раздачи этого фильма (4)
Благодарности релизеру (2)

Торрент:

Статус:

Размер:

Зарегистрирован   [ 2012-09-17 18:19 ]

проверено

8.63 GB