Торренты   
 
 

 

Мстители 3D / The Avengers 3D[2012, BDrip, 1080p, Anaglyph, red'cyan (RAV)]

Рейтинг 3D:
142 голосов
7.1
Рейтинг фильма:
144 голосов
7.9
 
Вы должны быть авторизированы,
чтобы ставить оценки


© Закрыто правообладателем
Год выпуска: 2012
Страна: США
Студия: Marvel, Paramaunt Pictures, Walt Disney Studios
Жанр: Фантастика, Боевик
Продолжительность: 02:22:54
Перевод: Профессиональный (дублированный)
Русские субтитры: есть
Режиссер: Джосс Уидон / Joss Whedon
В ролях: Роберт Дауни мл., Крис Эванс, Марк Руффало, Крис Хемсворт, Скарлетт Йоханссон, Джереми Реннер, Том Хиддлстон, Сэмюэл Л. Джексон, Кларк Грегг, Коби Смолдерс
Описание: Локи, сводный брат Тора, возвращается, и в этот раз он не один. Земля на грани порабощения, и только лучшие из лучших могут спасти человечество.
Ник Фьюри, глава международной организации Щ. И. Т., собирает выдающихся поборников справедливости и добра, чтобы отразить атаку. Под предводительством Капитана Америки Железный Человек, Тор, Невероятный Халк, Соколиный глаз и Чёрная Вдова вступают в войну с захватчиком.
Качество: BDrip
Контейнер: MKV
Формат 3d: Anaglyph (RAV)
Цвета очков:

Видео кодек: x264
Аудио кодек: AC3
Видео: V_MPEG4/ISO/AVC, 1920х1080, 16:9, 10.6 Mbps, 23.976 fps
Аудио: Русский / Дублированный / AC3 / 48 KHz / 5.1 ch / 640 Kbps
Аудио 2: English / Original / AC3 / 48 KHz / 5.1 ch / 640 Kbps
Субтитры: Русские, Английские

MediaInfo

F:\Aven\The_Avengers_3D_RAV.mkv
General
Unique ID : 184410853650201397352564557732467059807 (0x8ABC3D0F16D854D6AAFAC9685B862C5F)
Complete name : F:\Aven\The_Avengers_3D_RAV.mkv
Format : Matroska
Format version : Version 2
File size : 12.1 GiB
Duration : 2h 22mn
Overall bit rate : 12.2 Mbps
Movie name : The Avengers (3D) 2012 (by Ash61)
Encoded date : UTC 2012-09-17 06:07:54
Writing application : mkvmerge v4.4.0 ('Die Wiederkehr') сборка от Oct 31 2010 21:52:48
Writing library : libebml v1.0.0 + libmatroska v1.0.0
Video #1
ID : 1
Format : AVC
Format/Info : Advanced Video Codec
Format profile : High@L4.0
Format settings, CABAC : Yes
Format settings, ReFrames : 4 frames
Codec ID : V_MPEG4/ISO/AVC
Duration : 2h 22mn
Bit rate : 10.6 Mbps
Width : 1 920 pixels
Height : 1 080 pixels
Display aspect ratio : 16:9
Frame rate : 23.976 fps
Color space : YUV
Chroma subsampling : 4:2:0
Bit depth : 8 bits
Scan type : Progressive
Bits/(Pixel*Frame) : 0.214
Stream size : 10.6 GiB (87%)
Title : RAV-Anaglyph by Boss-Master
Writing library : x264 core 115 r1995 c1e60b9
Encoding settings : cabac=1 / ref=4 / deblock=1:-2:-2 / analyse=0x3:0x113 / me=umh / subme=9 / psy=1 / psy_rd=1.00:0.15 / mixed_ref=1 / me_range=16 / chroma_me=1 / trellis=2 / 8x8dct=1 / cqm=0 / deadzone=21,11 / fast_pskip=1 / chroma_qp_offset=-3 / threads=6 / sliced_threads=0 / nr=0 / decimate=1 / interlaced=0 / bluray_compat=0 / constrained_intra=0 / bframes=6 / b_pyramid=0 / b_adapt=2 / b_bias=0 / direct=3 / weightb=1 / open_gop=0 / weightp=2 / keyint=250 / keyint_min=23 / scenecut=40 / intra_refresh=0 / rc_lookahead=40 / rc=crf / mbtree=1 / crf=18.0 / qcomp=0.60 / qpmin=10 / qpmax=69 / qpstep=4 / ip_ratio=1.40 / aq=1:1.00
Language : English
Default : No
Forced : No
Audio #2
ID : 2
Format : AC-3
Format/Info : Audio Coding 3
Mode extension : CM (complete main)
Codec ID : A_AC3
Duration : 2h 22mn
Bit rate mode : Constant
Bit rate : 640 Kbps
Channel(s) : 6 channels
Channel positions : Front: L C R, Side: L R, LFE
Sampling rate : 48.0 KHz
Bit depth : 16 bits
Compression mode : Lossy
Stream size : 654 MiB (5%)
Title : Дубляж
Language : Russian
Default : Yes
Forced : No
Audio #3
ID : 3
Format : AC-3
Format/Info : Audio Coding 3
Mode extension : CM (complete main)
Codec ID : A_AC3
Duration : 2h 22mn
Bit rate mode : Constant
Bit rate : 640 Kbps
Channel(s) : 6 channels
Channel positions : Front: L C R, Side: L R, LFE
Sampling rate : 48.0 KHz
Bit depth : 16 bits
Compression mode : Lossy
Stream size : 654 MiB (5%)
Title : Original
Language : English
Default : No
Forced : No
Text #4
ID : 4
Format : UTF-8
Codec ID : S_TEXT/UTF8
Codec ID/Info : UTF-8 Plain Text
Title : Форсированные
Language : Russian
Default : Yes
Forced : No
Text #5
ID : 5
Format : UTF-8
Codec ID : S_TEXT/UTF8
Codec ID/Info : UTF-8 Plain Text
Title : Полные
Language : Russian
Default : No
Forced : No
Text #6
ID : 6
Format : UTF-8
Codec ID : S_TEXT/UTF8
Codec ID/Info : UTF-8 Plain Text
Title : Forced
Language : English
Default : No
Forced : No
Text #7
ID : 7
Format : UTF-8
Codec ID : S_TEXT/UTF8
Codec ID/Info : UTF-8 Plain Text
Title : Full
Language : English
Default : No
Forced : No
Menu
00:00:00.000 : :1
00:08:02.315 : :2
00:11:49.167 : :3
00:15:18.751 : :4
00:20:33.482 : :5
00:23:04.258 : :6
00:29:39.444 : :7
00:37:23.992 : :8
00:42:47.982 : :9
00:50:22.269 : :10
01:01:04.661 : :11
01:14:05.107 : :12
01:28:01.234 : :13
01:38:20.561 : :14
01:45:40.167 : :15
01:51:15.085 : :16
01:57:47.769 : :17
02:04:38.680 : :18
02:09:39.397 : :19
02:13:10.691 : :20

Скриншоты

Остальные раздачи этого фильма (5)
Благодарности релизеру (5)

Торрент:

Статус:

Размер:

Зарегистрирован   [ 2012-09-17 20:08 ]

© закрыто правообладателем

12.15 GB

 
 Мнение о фильме (27)

1, 2  След.






фильм бомба и 3д тоже. Вылеты есть, мне очень понравился. Даже больше чем аватар , а трансформеры вообще нервно курят.
Смотрю через CyberLink PowerDVD 11.
Вопрос: Через что лучше смотреть CyberLink PowerDVD 11 или ArcSoft TotalMedia Theatre 5.
Жду коменты
 

Спасибо огромное за раздачу. Фильм по смыслу не хуже, чем лучшие фильмы по комиксам - хорош в своём жанре. Очень красиво снят и 3D картинка лично мне очень понравилось - оценил на 10. По -больше бы фильмов с таким качественным 3d. А вообще удивительно, как люди быстро привыкают к хорошему - лет 10 назад от такой красоты и детализации народ бы в трансе ходил дня 2 минимум :)
 
Ярослав Yarik Профиль 25-Окт-2012 23:54

Фильм просто БОМБА, особенно когда ты смотрел железных человеков, халка, тора, первого мстителя :) Ток вот 3Д тут не очень, я когда в кино смотрел во многих местах просто без очков было можно смотреть, а 3д сводился к объемному покаху интерьера... Но все равно круто круто круто!))
З.Ы. Все видели кусочек после титров??
3.Ы.Ы. А второй кусочек после после титров видели про шаурму?))))
 

очень мало 3Д, разницы нету между обычным фильмом. лучше бы я это не скачивал и ни кому не советую его скачивать!!!!!!!!!!
 

Нда...Оценка качества 3D варьируется от никакого до фантастического. Я так понимаю, что это все таки больше зависит от оборудования, на котором это все смотрится.
 

3dbigsize, смотрите среднюю, она наиболее объективна, чем оценка одного человека
 

фильм супер 3д норм)качайте не пожалеети
 

Я очень люблю кино и это будет ничего сказать (как говориться у нас в Одессе) если бы я не посмотрел (первые полчаса-больше не смог) этого "высокохудожественного" Блокбастера...Отдельно по себе можно еще посмотреть все фильмы про главных героев,НО ЭТОТ "ШЕДЕВР" я не смог переварить.
Я так думаю,что там присутствует пресловутый "25-й кадр" для зомбирования зрителей подобным трэшем.В кругу своих и моего сына знакомых и друзей , никто не решился его вообще смотреть...
Я рискнул :
Оценка фильма - жалко даже ноль поставить
Оценка 3D - трудно сказать,ввиду вышеизложенного.
 

Кто ждет вылетов, их таки не будет. Объем и ничего более. Присутствует несколько битых мест, из-за которых при воспроизведении на моем ТВ LG через флешку или DLNA вылетает в меню, короче зря скачал.
пара из десятка косяков
 

Спасибо. Фильм хороший, 3д фигня.
Не каких битых мест не обнаружено, к релизу претензий нет.
На встроенном плеере тв Филипс всё пошло отлично.
 

GRASHA, Вот за такие отзывы риперы и трудятся.
3DМан, Возможная проблема, файл скачался не весь (вернее с глюком хеша). Попробуйте перехешировать в клиенте.
 

3D у этого фильма изначально никакое, смотрел в кинотеатре. Рип хорош никаких претензий, но и без 3D он не хуже смотрится.
 

avm1960, Выключи мозги и смотри. Умник.
 

Фильм очень понравился, качество 3D тоже порадовало.
 

Фильм классный, только в начале темноват, а так и сюжет и 3d классно. Можно смотреть несколько раз
 

качественное кино и 3d вполне ...
 

Фильм хорошый и 3d норма спасибо !!!
 

фильм нормал, 3D тоже !!!
 

Фильм хорош, только в своем жанре, сыну 13 лет -- понравился, жена осилила лишь треть, я-же смотрел стерео, оно очень хорошее, но без "вылетов".
 

норм
 

Страница 1 из 2

1, 2  След.