Торренты   
 
 

 

Мумии: Секреты фараонов / Mummies: Secrets of the Pharaohs [2007, BDrip, half1080p, Anamorph OverUnder] IMAX

Рейтинг 3D:
7 голосов
8.1
Рейтинг фильма:
8 голосов
8.2
 
Вы должны быть авторизированы,
чтобы ставить оценки


Мумии: Секреты фараонов
Mummies: Secrets of the Pharaohs
Год выпуска: 2007
Страна: США (Giant Screen Films, Gravity Pictures for IMAX)
Жанр: Документальный, История
Продолжительность: 00:38:40
Перевод: Профессиональный (одноголосый) (BD CEE)
Режиссер: Кейт Мелтон / Keith Melton-Роли исполняли:
Nefertari - Элана Драго
Charles Wilbour - Уильям Хоуп
Ahmed Abd El Rassoul - Нассер Мемарзиа
Grand Vizier Paser - Mehdi Ouazzani
Emil Brugsch - Криспин Редмен
Mohammed Abd El Rassoul - Дауд Шах
Rameses - Борис Терраль
Brugsch's Assistant - Brahim Choukri
Сам себя - Dr. Bob Brier
Сама себя - Dr. Angelique Corthals
Сам себя - Dr. Zahi Hawass
Рассказчик на английском - Кристофер Ли
...-Описание: Вы переноситесь в увлекательный и красивый мир древнего Египта. Это археологическое и научное приключение по следам исследователей и первооткрывателей, из рассказа которых складывается представление о культуре древнего Египта, о секретах мумий, о генетических находках.
Фильм «МУМИИ: СЕКРЕТЫ ФАРАОНОВ» изучает загадочный мир Древнего Египта на основе материалов о древних мумиях. Египетская культура мумифицирования не была первой, последней или самой продолжительной. Но для многих она остается самой великой. Древние египтяне верили, что их судьбы подчиняются воле богов, на чье решение могли повлиять усопшие предки. Проявляя уважение к умершим путем их мумифицирования, они надеялись добиться контроля над волей богов и над своими судьбами.
В прошлые века мумии растирали в порошок в качестве лекарства для богатых европейцев, а также разрушали их несоблюдением техники извлечения из бинтов в XIX и XX веках.
В наши дни ученые пользуются компьютерной томографией, позволяющей просветить объект рентгеновскими лучами, не нарушая его целостности. Помимо попыток глубже заглянуть в наше далекое прошлое, ученые реконструируют ДНК мумий и расшифровывают древние письмена для получения новых знаний из области генетики и медицины.
Сюжетная линия фильма «МУМИИ: СЕКРЕТЫ ФАРАОНОВ» неразрывно связана с работой двух выдающихся ученых: египтолога и специалиста по мумиям доктора Боба Брайара, который мумифицировал тело современного человека по древнеегипетской технологии; и доктора Анжелики Кортальс, ученого-генетика, работающей над извлечением генетической информации из тел древних мумий для продвижения современной медицины.
Отчасти историческое путешествие, отчасти научное приключение, «МУМИИ: СЕКРЕТЫ ФАРАОНОВ» покажут нам, как фрагмент за фрагментом складываются воедино археологические и генетические находки. С помощью потрясающей компьютерной графики и комплексной реконструкции событий мы становимся свидетелями значимого исторического события – находки гробницы с сорока мумиями, включая двенадцать Царей Египта.

Техн. подробности съёмки

  • Производство 7 октября 2006 — 15 ноября 2006
  • Формат изображения: 1.44 : 1
  • Камера: MSM Model 9802
  • Формат копии: 70 mm
  • Формат съёмок: 65 mm
  • Премьера: 25 мая 2007 (4 июня 2009)
    Бюджет: $4 000 000

    . .
    Проверено на встроенном плейере ТВ Samsung UE-C7000
    --Формат 3D: Anamorph OverUnder
    Качество: BDrip (с БД Samsung. Triple Feature)
    Контейнер: MKV-Видео: AVC / 23,976 fps / 1920х1080p / 9327 Kbps
    Аудио:
    #1 - Русский / AC3 / 48 KHz / 5.1 ch / 640 Kbps
    #2 - Английский / AC3 / 48 KHz / 5.1 ch / 640 Kbps
    Субтитры Вшитые softsub (SRT):

    #1 - Русские Форсированные (включены по умолчанию)
    #2 - Русские Полные

    MediaInfo

    General
    UniqueID : 221790137277154596259529228571281166481 (0xA6DB3A076280D62393C637E3ACDF9091)
    Complete name : F:\Downloads\Mummies.SecretsOfThePharaohs(3D)2007.halfOU(Ash61).mkv
    Format : Matroska
    File size : 2.93 GiB
    Duration : 38mn 41s
    Overall bit rate : 10.8 Mbps
    Movie name : Mummies: Secrets of the Pharaohs (3D) 2007 (by Ash61)
    Encoded date : UTC 2012-09-16 19:35:59
    Writing application : mkvmerge v3.4.0 ('Rapunzel') сборка от May 15 2010 09:38:20
    Writing library : libebml v0.8.0 + libmatroska v0.9.0
    Video
    ID : 1
    Format : AVC
    Format/Info : Advanced Video Codec
    Format profile : High@L4.1
    Format settings, CABAC : Yes
    Format settings, ReFrames : 4 frames
    Codec ID : V_MPEG4/ISO/AVC
    Duration : 38mn 41s
    Bit rate : 9 327 Kbps
    Width : 1 920 pixels
    Height : 1 080 pixels
    Display aspect ratio : 16:9
    Frame rate : 23.976 fps
    Color space : YUV
    Chroma subsampling : 4:2:0
    Bit depth : 8 bits
    Scan type : Progressive
    Bits/(Pixel*Frame) : 0.188
    Stream size : 2.52 GiB (86%)
    Title : Rip by Ash61
    Writing library : x264 core 112 r1834 a51816a
    Encoding settings : cabac=1 / ref=4 / deblock=1:-1:-1 / analyse=0x3:0x113 / me=umh / subme=9 / psy=1 / psy_rd=1.00:0.15 / mixed_ref=1 / me_range=16 / chroma_me=1 / trellis=2 / 8x8dct=1 / cqm=0 / deadzone=21,11 / fast_pskip=1 / chroma_qp_offset=-3 / threads=3 / sliced_threads=0 / nr=0 / decimate=1 / interlaced=0 / constrained_intra=0 / bframes=4 / b_pyramid=2 / b_adapt=2 / b_bias=0 / direct=3 / weightb=1 / open_gop=0 / weightp=2 / keyint=250 / keyint_min=23 / scenecut=40 / intra_refresh=0 / rc_lookahead=40 / rc=crf / mbtree=1 / crf=18.0 / qcomp=0.60 / qpmin=0 / qpmax=51 / qpstep=4 / ip_ratio=1.40 / aq=1:1.00
    Language : English
    Audio #1
    ID : 2
    Format : AC-3
    Format/Info : Audio Coding 3
    Mode extension : CM (complete main)
    Codec ID : A_AC3
    Duration : 38mn 41s
    Bit rate mode : Constant
    Bit rate : 640 Kbps
    Channel(s) : 6 channels
    Channel positions : Front: L C R, Side: L R, LFE
    Sampling rate : 48.0 KHz
    Bit depth : 16 bits
    Compression mode : Lossy
    Stream size : 177 MiB (6%)
    Title : Одноголосый закадровый - BD CEE
    Language : Russian
    Audio #2
    ID : 3
    Format : AC-3
    Format/Info : Audio Coding 3
    Mode extension : CM (complete main)
    Codec ID : A_AC3
    Duration : 38mn 41s
    Bit rate mode : Constant
    Bit rate : 640 Kbps
    Channel(s) : 6 channels
    Channel positions : Front: L C R, Side: L R, LFE
    Sampling rate : 48.0 KHz
    Bit depth : 16 bits
    Compression mode : Lossy
    Stream size : 177 MiB (6%)
    Title : Original
    Language : English
    Text #1
    ID : 4
    Format : UTF-8
    Codec ID : S_TEXT/UTF8
    Codec ID/Info : UTF-8 Plain Text
    Title : Форсированные
    Language : Russian
    Text #2
    ID : 5
    Format : UTF-8
    Codec ID : S_TEXT/UTF8
    Codec ID/Info : UTF-8 Plain Text
    Title : Полные
    Language : Russian
    Menu
    00:00:00.000 : en: 01
    00:02:34.696 : en: 02
    00:04:25.807 : en: 03
    00:06:48.533 : en: 04
    00:10:10.193 : en: 05
    00:11:47.749 : en: 06
    00:14:21.277 : en: 07
    00:15:21.087 : en: 08
    00:16:51.302 : en: 09
    00:18:51.464 : en: 10
    00:21:26.035 : en: 11
    00:23:05.843 : en: 12
    00:25:55.137 : en: 13
    00:27:33.151 : en: 14
    00:29:18.173 : en: 15
    00:32:39.040 : en: 16
    00:34:22.811 : en: 17
    00:35:01.141 : en: 18

    Скриншоты

    Благодарности релизеру (35)

    Торрент:

    Статус:

    Размер:

    Зарегистрирован   [ 2012-09-17 21:22 ]

    проверено

    2.93 GB

     
     Мнение о фильме (1)





    Фильм интересный.
    Но не скажу, что сильные вылеты - напоминает конвертацию 2В в 3D/.