Торренты   
 
 


Тор: Легенда викингов / Legends of Valhalla: Thor (Оускар Йоунассон, Тоби Генкель) [2011 г., Full OverUnder]

Рейтинг 3D:
9 голосов
5.6
Рейтинг фильма:
9 голосов
5.6
 
Вы должны быть авторизированы,
чтобы ставить оценки


Тор: Легенда викингов / Hetjur Valhallar - Þór
Год выпуска: 2011
Страна: Германия, Исландия, Ирландия
Жанр: мультфильм, комедия, приключения, семейный
Продолжительность: 01:23:00
Перевод: Профессиональный (полное дублирование)
Режиссер: Оускар Йоунассон, Тоби Генкель / Óskar Jónasson, Toby Genkel
Роли озвучивали: Джастин Грегг, Пол Тайлак, Николя Кохлан, Лиз Ллойд, Алан Стэнфорд, Эммет Скэнлэн, Дж. Дрю Лукас, Мэри Мюррэй, Леса Турман, Гари Хецлер
Роли дублировали: Прохор Чеховской, Диомид Виноградов, Александр Груздев, Вероника Саркисова, Денис Строев
Описание: Самоуверенный подросток, в арсенале которого находятся магическое оружие, присоединяется к борьбе против злой королевы и ее армии великанов.
Сэмпл: http://www.sendspace.com/file/4qtp33
ВНИМАНИЕ ! :На встроенных ТВ-плейерах работать не будет!!!
Качество: BDrip
Контейнер: MKV
Формат 3D: OverUnder / Вертикальная стереопара
Порядок ракурсов: левый ракурс первый
Видео кодек: x264
Аудио кодек: AC3
Видео: AVC / 1920х1608 / 23,976 fps / 27.1 Mbps
Аудио: Русский / AC3 / 48 KHz / 5.1 ch / 640 Kbps

MediaInfo

General
Unique ID : 230589095681864751223950334127070718551 (0xAD79D82C0F1D97F9BA609E25AD772A57)
Complete name : L:\ФИЛЬМЫ\Legends of Valhalla Thor.mkv
Format : Matroska
Format version : Version 2
File size : 16.4 GiB
Duration : 1h 22mn
Overall bit rate : 28.3 Mbps
Encoded date : UTC 2012-09-19 10:06:38
Writing application : mkvmerge v3.4.0 ('Rapunzel') сборка от May 15 2010 09:38:20
Writing library : libebml v0.8.0 + libmatroska v0.9.0
Video
ID : 1
Format : AVC
Format/Info : Advanced Video Codec
Format profile : High@L5.0
Format settings, CABAC : Yes
Format settings, ReFrames : 4 frames
Codec ID : V_MPEG4/ISO/AVC
Duration : 1h 22mn
Bit rate : 27.1 Mbps
Width : 1 920 pixels
Height : 1 608 pixels
Display aspect ratio : 1.194
Frame rate mode : Constant
Frame rate : 23.976 fps
Color space : YUV
Chroma subsampling : 4:2:0
Bit depth : 8 bits
Scan type : Progressive
Bits/(Pixel*Frame) : 0.367
Stream size : 15.7 GiB (96%)
Title : Rip by SeRoGa00
Writing library : x264 core 128 r2216kMod 198a7ea
Encoding settings : cabac=1 / ref=4 / deblock=1:-1:-1 / analyse=0x3:0x133 / me=umh / subme=9 / psy=1 / fade_compensate=0.00 / psy_rd=1.00:0.15 / mixed_ref=1 / me_range=16 / chroma_me=1 / trellis=2 / 8x8dct=1 / cqm=0 / deadzone=21,11 / fast_pskip=1 / chroma_qp_offset=-3 / threads=9 / lookahead_threads=1 / sliced_threads=0 / nr=0 / decimate=1 / interlaced=0 / bluray_compat=0 / constrained_intra=0 / bframes=6 / b_pyramid=2 / b_adapt=2 / b_bias=0 / direct=3 / weightb=1 / open_gop=0 / weightp=2 / keyint=250 / keyint_min=23 / scenecut=40 / intra_refresh=0 / rc_lookahead=60 / rc=crf / mbtree=1 / crf=18.0000 / qcomp=0.80 / qpmin=10 / qpmax=69 / qpstep=4 / vbv_maxrate=40000 / vbv_bufsize=40000 / crf_max=0.0 / nal_hrd=none / ip_ratio=1.40 / aq=1:1.00
Language : English
Default : Yes
Forced : No
Audio
ID : 2
Format : AC-3
Format/Info : Audio Coding 3
Mode extension : CM (complete main)
Format settings, Endianness : Big
Codec ID : A_AC3
Duration : 1h 22mn
Bit rate mode : Constant
Bit rate : 640 Kbps
Channel(s) : 6 channels
Channel positions : Front: L C R, Side: L R, LFE
Sampling rate : 48.0 KHz
Bit depth : 16 bits
Compression mode : Lossy
Stream size : 380 MiB (2%)
Language : Russian
Default : Yes
Forced : No

Скриншоты


Остальные раздачи этого фильма (4)
Благодарности релизеру (1)

Торрент:

Статус:

Размер:

Зарегистрирован   [ 2012-09-19 15:11 ]

проверено

16.42 GB

 
 Мнение о фильме (2)





Хрень)
 

Мульт на 4 ку, всё таки европа не так качественно делает мульты как америка