Торренты   
 
 


Mars- The Viking Mission / Марс- миссия Викинга (Kenneth L. Jones William G. Schottstardt) [2012 г., BDRip 1080p, Full OverUnder]

Рейтинг 3D:
2 голосов
5.5
Рейтинг фильма:
2 голосов
6.5
 
Вы должны быть авторизированы,
чтобы ставить оценки


Mars- The Viking Mission / Марс- миссия Викинга
Год выпуска: 2012
Страна: США
Жанр: документальный
Продолжительность: 00:32
Перевод: Отсутствует
Режиссер: Kenneth L. Jones William G. Schottstardt
Описание: Производство Стэнфордский университет и Офис Истории NASA.
Научно-исследовательский центр Эймса предоставил видеозаписи 1980-ых годов миссии Викинга NASA 1 & 2 на Марс. Саундтрек был создан в Центре Компьютерного Исследования музыки и акустики (CCRMA) в Стэнфорде под руководством Джона Чоунинга.
Первоначально сделанный в 1978, он был обновлен в 2012. 3D Эффект удивителен для своего возраста.
Формат 3d: OverUnder
Видео: AVC, High@L5.0, 1920x2160, 23.976 fps, 6681 Кбит/сек
Аудио: Rus, AC3, 6 каналов, 640 Кбит/сек, 48,0 КГц

Скриншоты




MediaInfo

Общее
Уникальный идентификатор : 216966898155217390326383729291267123097 (0xA33A4DFAE85317548FDA5338A1FBA799)
Полное имя : D:\_Stereo\Mars_The Viking Mission 1080p.mkv
Формат : Matroska
Версия формата : Version 2
Размер файла : 1,71 Гбайт
Продолжительность : 32 м.
Общий поток : 7470 Кбит/сек
Название фильма : Rip by Dag13
Дата кодирования : UTC 2012-09-19 15:10:41
Программа кодирования : mkvmerge v3.4.0 ('Rapunzel') сборка от May 15 2010 09:38:20
Библиотека кодирования : libebml v0.8.0 + libmatroska v0.9.0
Видео
Идентификатор : 1
Формат : AVC
Формат/Информация : Advanced Video Codec
Профиль формата : High@L5.0
Параметр CABAC формата : Да
Параметр ReFrames формата : 4 кадра
Идентификатор кодека : V_MPEG4/ISO/AVC
Продолжительность : 32 м.
Битрейт : 6681 Кбит/сек
Ширина : 1920 пикселей
Высота : 1632 пикселя
Соотношение сторон : 1,176
Режим частоты кадров : Постоянный
Частота кадров : 23,976 кадра/сек
Цветовое пространство : YUV
Субдискретизация насыщенности : 4:2:0
Битовая глубина : 8 бит
Тип развёртки : Прогрессивная
Бит/(Пиксели*Кадры) : 0.089
Размер потока : 1,53 Гбайт (89%)
Библиотека кодирования : x264 core 120 r2145 748fe16
Настройки программы : cabac=1 / ref=4 / deblock=1:-3:-3 / analyse=0x3:0x113 / me=umh / subme=9 / psy=1 / psy_rd=1.00:0.00 / mixed_ref=1 / me_range=16 / chroma_me=1 / trellis=1 / 8x8dct=1 / cqm=0 / deadzone=21,11 / fast_pskip=1 / chroma_qp_offset=-2 / threads=9 / sliced_threads=0 / nr=0 / decimate=1 / interlaced=0 / bluray_compat=0 / constrained_intra=0 / bframes=6 / b_pyramid=0 / b_adapt=2 / b_bias=0 / direct=3 / weightb=1 / open_gop=0 / weightp=2 / keyint=250 / keyint_min=23 / scenecut=40 / intra_refresh=0 / rc_lookahead=60 / rc=crf / mbtree=1 / crf=18.0 / qcomp=0.60 / qpmin=0 / qpmax=69 / qpstep=4 / ip_ratio=1.40 / aq=1:1.00
Язык : English
Default : Нет
Forced : Нет
Аудио
Идентификатор : 2
Формат : AC-3
Формат/Информация : Audio Coding 3
Расширение режима : CM (complete main)
Параметр Endianness формата : Big
Идентификатор кодека : A_AC3
Продолжительность : 32 м.
Вид битрейта : Постоянный
Битрейт : 640 Кбит/сек
Каналы : 6 каналов
Расположение каналов : Front: L C R, Side: L R, LFE
Частота : 48,0 КГц
Битовая глубина : 16 бит
Метод сжатия : С потерями
Размер потока : 150 Мбайт (9%)
Язык : English
Default : Да
Forced : Нет
На встроенных ТВ-плейерах показывать НЕ будет!!!
Благодарности релизеру (0)

Торрент:

Статус:

Размер:

Зарегистрирован   [ 2012-09-19 20:09 ]

проверено

1.71 GB