Торренты   
 
 

 

IMAX. Динозавры живы! 3D / Dinosaurs Alive 3D (Дэвид Кларк, Бэйли Силлек) [2007 г., Anamorph OverUnder]

Рейтинг 3D:
13 голосов
7.6
Рейтинг фильма:
12 голосов
8.0
 
Вы должны быть авторизированы,
чтобы ставить оценки


IMAX. Динозавры живы! 3D / Dinosaurs Alive 3D [2007 г, 1080p, Anamorph OverUnder, Rus AVO]
Год выпуска: 2007
Страна: США
Жанр: Документальный, научно-популярный
Продолжительность: 00:39:54
Перевод: Любительский (одноголосый)
Режиссер: Дэвид Кларк, Бэйли Силлек
Описание: "Динозавры живы!" - одна из новейших и интереснейших страниц в книге уникальных палеонтологических открытий, когда-либо сделанных в научном мире. Зрители совершат увлекательное приключение вместе с самыми выдающимися палеонтологами мира, которые докажут, что потомки динозавров живут среди нас, древние черты угадываются в современном животном мире. Фильм рассказывает о древних ящерах триасового периода, живших около 260 миллионов лет назад, начиная с первых динозавров довольно скромных размеров - не больше кошки или собаки, заканчивая монстрами мелового периода, восставшими в натуральную величину на гигантском экране суперкинотеатра Nescafe IMAX. Окаменелые истории из жизни динозавров - это великие моменты из прошлого, восстановленные с помощью самой современной компьютерной графики. Одна из самых захватывающих сцен фильма рассказывает нам, как боролись древние ящеры - Велоцираптор и Протоцератопс, пока песчаная дюна не обвалилась и не накрыла их навеки. Редчайшие исторические кадры съемок экспедиции, благодаря трехмерному изображению, обеспечивают нам погружение в наше далекое прошлое через время и расстояния.
Доп. информация: На основе релиза ash61 c исходника Dag13. Дополнен русской дорожкой от Mona Lisa (немного подкрученной и пересведенной).
Формат 3d: Anamorph OverUnder (Правый ракурс верхний)
Видео: AVC / 1920x1080 / 23.976fps / 8000 Kbps
Аудио #1: Русский / AC3 / 6ch / 448 Kbps / 48 KHz (AVO Mona Lisa)
Аудио #2: Английский / AC3 / 6ch / 640 Kbps / 48 KHz (Оригинал)
Субтитры: Русские полные, SRT

MediaInfo

=== General ===
Unique ID : 206528867170890695051517285429014693768 (0x9B600351C56C40BF928A0CBFAB340788)
Complete name : D:\Закачки\Dinosaurs Alive.1080р.3DhalfOU.Rus.(ash61-MonaLisa-tnrprog).mkv
Format : Matroska
Format version : Version 3 / Version 2
File size : 2.54 GiB
Duration : 39mn 54s
Overall bit rate : 9 098 Kbps
Encoded date : UTC 2012-09-20 12:58:42
Writing application : mkvmerge v5.8.0 ('No Sleep / Pillow') built on Sep 2 2012 15:37:04
Writing library : libebml v1.2.3 + libmatroska v1.3.0
=== Video ===
ID : 1
Format : AVC
Format/Info : Advanced Video Codec
Format profile : High@L4.0
MultiView_Count : 2
MultiView_Layout : Top-Bottom (left eye first)
Format settings, CABAC : Yes
Format settings, ReFrames : 4 frames
Codec ID : V_MPEG4/ISO/AVC
Duration : 39mn 54s
Bit rate : 8 000 Kbps
Width : 1 920 pixels
Height : 1 080 pixels
Display aspect ratio : 16:9
Frame rate : 23.976 fps
Color space : YUV
Chroma subsampling : 4:2:0
Bit depth : 8 bits
Scan type : Progressive
Bits/(Pixel*Frame) : 0.161
Stream size : 2.18 GiB (86%)
Title : 1080p, Anamorph OverUnder (Dag13, ash61)
Writing library : x264 core 98 r1649 c54c47d
Encoding settings : cabac=1 / ref=3 / deblock=1:0:0 / analyse=0x3:0x113 / me=hex / subme=7 / psy=1 / psy_rd=1.00:0.00 / mixed_ref=1 / me_range=16 / chroma_me=1 / trellis=1 / 8x8dct=1 / cqm=0 / deadzone=21,11 / fast_pskip=1 / chroma_qp_offset=-2 / threads=3 / sliced_threads=0 / nr=0 / decimate=1 / interlaced=0 / constrained_intra=0 / bframes=3 / b_pyramid=2 / b_adapt=1 / b_bias=0 / direct=1 / weightb=1 / weightp=2 / keyint=250 / keyint_min=25 / scenecut=40 / intra_refresh=0 / rc_lookahead=40 / rc=2pass / mbtree=1 / bitrate=8000 / ratetol=1.0 / qcomp=0.60 / qpmin=10 / qpmax=51 / qpstep=4 / cplxblur=20.0 / qblur=0.5 / ip_ratio=1.40 / aq=1:1.00
Default : Yes
Forced : No
=== Audio 1 ===
ID : 2
Format : AC-3
Format/Info : Audio Coding 3
Mode extension : CM (complete main)
Codec ID : A_AC3
Duration : 39mn 54s
Bit rate mode : Constant
Bit rate : 448 Kbps
Channel(s) : 6 channels
Channel positions : Front: L C R, Side: L R, LFE
Sampling rate : 48.0 KHz
Bit depth : 16 bits
Compression mode : Lossy
Stream size : 128 MiB (5%)
Title : Rus AVO - Mona Lisa (remastered by tnrprog)
Language : Russian
Default : Yes
Forced : No
=== Audio 2 ===
ID : 3
Format : AC-3
Format/Info : Audio Coding 3
Mode extension : CM (complete main)
Codec ID : A_AC3
Duration : 39mn 54s
Bit rate mode : Constant
Bit rate : 640 Kbps
Channel(s) : 6 channels
Channel positions : Front: L C R, Side: L R, LFE
Sampling rate : 48.0 KHz
Bit depth : 16 bits
Compression mode : Lossy
Stream size : 183 MiB (7%)
Title : English Original
Language : English
Default : No
Forced : No
=== Text ===
ID : 4
Format : UTF-8
Codec ID : S_TEXT/UTF8
Codec ID/Info : UTF-8 Plain Text
Language : Russian
Default : No
Forced : No
Благодарности релизеру (29)

Торрент:

Статус:

Размер:

Зарегистрирован   [ 2012-09-20 18:17 ]

* не проверено

2.54 GB

 
 Мнение о фильме (5)





В принцепи фильм норм,но 3d оставляет желать лучшего очень большая резкость,моментами нормально можно смотреть,а моментами глаза сломаешь!!!
 

норм такой фильмец,да и 3d пойдет
 

Глаза ломать не надо, надо поменять местами левый и правый ракурсы. Правый - верхний, написано же.
 

где скрины?
 

спасибо . понравилось всем.