Торренты   
 
 

 

Цунами / Bait (Кимбл Рендалл) [2012 г., BDRip 1080p, Full OverUnder]

Рейтинг 3D:
91 голосов
7.3
Рейтинг фильма:
81 голосов
6.0
 
Вы должны быть авторизированы,
чтобы ставить оценки


Цунами / Bait
Год выпуска: 2012
Страна: Австралия, Bait Productions, Screen Australia
Жанр: Ужасы, боевик, триллер
Продолжительность: 01:33:17
Перевод:Профессиональный (полное дублирование)
Режиссер: Кимбл Рендалл
В ролях: Фиби Тонкин, Завьер Сэмюэл, Шарни Винсон, Джулиан МакМэхон, Кариба Хейн, Алекс Расселл, Линкольн Льюис, Элис Паркинсон, Дэниэл Уилли, Ричард Бранкатисано
Описание: Чудовищное цунами обрушивается на курортный город. Из морских глубин на затопленные улицы вырываются голодные и жаждущие крови акулы. Начинается охота. Оказавшись в ловушке стихии, чудом уцелевшие люди пытаются выжить. Сможет ли Джош спасти жизнь девушки, которую он всегда любил, но однажды уже потерял?
Формат 3d: OverUnder
Видео: AVC, High@L5.0, 1920x2160, 23.976 fps, 15,0 Мбит/сек
Аудио: Rus, DTS, 6 каналов, 1510 Кбит/сек, 48,0 КГц
Аудио: Eng, DTS, 6 каналов, 1510 Кбит/сек, 48,0 КГц

Скриншоты




MediaInfo

Общее
Уникальный идентификатор : 171056470677511514554234615464303388002 (0x80B04724D756FDD2B725F2EE3345E562)
Полное имя : E:\STEREO\Bait 1080p Rip by Dag13.mkv
Формат : Matroska
Версия формата : Version 2
Размер файла : 16,0 Гбайт
Продолжительность : 1 ч. 33 м.
Общий поток : 24,6 Мбит/сек
Дата кодирования : UTC 2012-11-01 03:14:13
Программа кодирования : mkvmerge v3.4.0 ('Rapunzel') сборка от May 15 2010 09:38:20
Библиотека кодирования : libebml v0.8.0 + libmatroska v0.9.0
Видео
Идентификатор : 1
Формат : AVC
Формат/Информация : Advanced Video Codec
Профиль формата : High@L5.0
Параметр CABAC формата : Да
Параметр ReFrames формата : 4 кадра
Идентификатор кодека : V_MPEG4/ISO/AVC
Продолжительность : 1 ч. 33 м.
Битрейт : 21,0 Мбит/сек
Ширина : 1920 пикселей
Высота : 2160 пикселей
Соотношение сторон : 0,889
Режим частоты кадров : Постоянный
Частота кадров : 23,976 кадра/сек
Цветовое пространство : YUV
Субдискретизация насыщенности : 4:2:0
Битовая глубина : 8 бит
Тип развёртки : Прогрессивная
Бит/(Пиксели*Кадры) : 0.212
Размер потока : 13,7 Гбайт (86%)
Заголовок : Rip by Dag13
Библиотека кодирования : x264 core 120 r2145 748fe16
Настройки программы : cabac=1 / ref=4 / deblock=1:-3:-3 / analyse=0x3:0x113 / me=umh / subme=9 / psy=1 / psy_rd=1.00:0.00 / mixed_ref=1 / me_range=16 / chroma_me=1 / trellis=1 / 8x8dct=1 / cqm=0 / deadzone=21,11 / fast_pskip=1 / chroma_qp_offset=-2 / threads=9 / sliced_threads=0 / nr=0 / decimate=1 / interlaced=0 / bluray_compat=0 / constrained_intra=0 / bframes=6 / b_pyramid=2 / b_adapt=2 / b_bias=0 / direct=3 / weightb=1 / open_gop=0 / weightp=2 / keyint=250 / keyint_min=23 / scenecut=40 / intra_refresh=0 / rc_lookahead=60 / rc=crf / mbtree=1 / crf=18.0 / qcomp=0.60 / qpmin=1 / qpmax=69 / qpstep=4 / ip_ratio=1.40 / aq=1:1.00
Язык : English
Default : Нет
Forced : Нет
Аудио #1
Идентификатор : 2
Формат : DTS
Формат/Информация : Digital Theater Systems
Идентификатор кодека : A_DTS
Продолжительность : 1 ч. 33 м.
Вид битрейта : Постоянный
Битрейт : 1510 Кбит/сек
Каналы : 6 каналов
Расположение каналов : Front: L C R, Side: L R, LFE
Частота : 48,0 КГц
Битовая глубина : 24 бит
Метод сжатия : С потерями
Размер потока : 1006 Мбайт (6%)
Язык : Russian
Default : Да
Forced : Нет
Аудио #2
Идентификатор : 3
Формат : DTS
Формат/Информация : Digital Theater Systems
Идентификатор кодека : A_DTS
Продолжительность : 1 ч. 33 м.
Вид битрейта : Постоянный
Битрейт : 1510 Кбит/сек
Каналы : 6 каналов
Расположение каналов : Front: L C R, Side: L R, LFE
Частота : 48,0 КГц
Битовая глубина : 24 бит
Метод сжатия : С потерями
Размер потока : 1006 Мбайт (6%)
Язык : English
Default : Нет
Forced : Нет
На встроенных ТВ-плейерах показывать НЕ будет!!!Торрент обновлен, русский звук заменен на лицензию. Просьба перезакочать торрент файл.
Остальные раздачи этого фильма (3)
Благодарности релизеру (15)

Торрент:

Статус:

Размер:

Зарегистрирован   [ 2012-11-01 14:11 ]

проверено

15.97 GB

 
 Мнение о фильме (35)

Пред.  1, 2






Г....о! Еле досмотрел!
 

3д хорошее. Фильм конечно штамповка, но в целом норм.
 

Спасибо за фильм!! Классные эффекты ,особенно когда выныривает акула за добычей!!!! Взрыв автомобиля в магазине, детали от взрыва как-будьто в лицо летят!!
 

Согласен, 3D отличное, фильм гамно. :) И вообще с английского переводится как "Наживка", цунами там 1 минута.
 

Большое спасибо за работу,фильм хороший
 

спасибо за релиз, 3д хорошее, правда сам фильм - не очень, посмотреть на один раз.
 

Нормальный фильм с хорошим стерео
 

сюжет не понравился до конца не досмртрел
 

пустурасы одно слово, пусто место не бывает, но оказывается бывает, ничегошеньки нема как говорится
 

Судя по критике на КиноПоиске получше будет чем Пираньи 3DD.
блин вы чего?? разве может что то быть лучше Пираньев 3DD? это же просто идеал трэша и тупизны... еще и в 3D :о)
 

Спасибо за раздачу!!! Эффект 3D нормальный как для такого фильма, что касается сюжета то что вы хотите от австралийцев??!! Это же вам не Голливуд. Фильмец сам по себе весьма и посредственный...
 

СПАСИБО ЗА РАЗДАЧУ!!!
 

Станьте кто-нибудь на раздачу.Пожалуйста.
 

Фильм неплох, хоть и нашпигован штампами и жуткими нестыковками вроде электрощита под водой.
И после таких "не стыковок" фильм неплох??!! )))) Да вы че, народ, совсем уже чердаком поехали? Вам дерьмо предлагают, а вы его хаваете при этом причмокивая! Что с людьми происходит?! Неужели мы все реально деградируем с каждым годом?! Да там настолько много тупизма, что и не пересчитать! Фильм реально рассчитан на полного идиота.
 

блин вы чего?? разве может что то быть лучше Пираньев 3DD? это же просто идеал трэша и тупизны... еще и в 3D :о)
А людям в наше время очень нравится тупизна, видимо.:D
 

Страница 2 из 2

Пред.  1, 2