Торренты   
 
 


Кэти Перри: Частичка меня / Katy Perry: Part of Me (2012, BDrip, half1080p, Anamorph OverUnder)

Рейтинг 3D:
1 голосов
4.0
Рейтинг фильма:
1 голосов
4.0
 
Вы должны быть авторизированы,
чтобы ставить оценки


-Кэти Перри: Частичка меня / Katy Perry: Part of Me Год выпуска: 2012
Страна: США (Paramaunt Pictures, Insurge Pictures, MTV Films, Imagine Entertainment)
Жанр: Документальный, Музыка
Продолжительность: 01:33:33
Перевод: Отсутствует
Режиссеры: Дэн Катфорт, Джейн Липшиц / Dan Cutforth, Jane Lipsitz
В фильме снимались: Кэти Перри, Шеннон Мари Вудворд, Лукас Керр (бойфренд), Рэйчел Маркариан, Глен Баллард, Таша Лэйтон
Описание: Кэти Перри является живым доказательством того, что если вы будете самим собой, вы сможете достичь любой высоты! Воспользуйтесь возможностью увидеть мир Кэти Перри изнутри и посмотрите, что скрывается за цветом, блеском и славой. Узнайте, как эта обычная девушка из Калифорнии с большими мечтами, стала одной из самых больших звезд в мире, и как нелегко даётся этот успех!
В фильме показаны редкие закулисные интервью, личные отношения между Кэти и ее друзьями, а также с её (ещё) мужем Расселлом Брэндом, видеозаписи репетиций, а также неизбежная зависимость личной жизни от шоубиза.
Доп. информация: Реально 3Д-эпизоды составляют около трети фильма. Это её сценические выступления (с постоянными "вкраплениями" 2Д-вставок) и пара-тройка интервью нарезанных и "размазанных" по всему фильму. Остальное, либо чистое 2Д, либо 3Д-надписи на фоне 2Д-сцен.--Премьера: 28 июня 2012
Бюджет: $12 000 000
Кассовые сборы: $31 911 815

. . .
Проверено на встроенном плейере ТВ Samsung UE-C7000
--Формат 3Д: Anamorph OverUnder
Качество: BDrip
Контейнер: MKV-Видео: AVC / 23,976 fps / 1920х1080p / 15.1 Mbps
Аудио: Английский / AC3 / 48 KHz / 5.1 ch / 640 Kbps
Субтитры: Отсутствуют

MediaInfo

General
Unique ID : 223136510505160017253328907010022805272 (0xA7DE875AA3AB5B99A4208E74D6FF8F18)
Complete name : G:\Downloads\KatyPerry.PartOfMe(3D)2012.halfOU(Ash61)Eng.mkv
Format : Matroska
Format version : Version 2
File size : 10.5 GiB
Duration : 1h 33mn
Overall bit rate : 16.1 Mbps
Movie name : Katy Perry: Part of Me (3D) 2012 (by Ash61)
Encoded date : UTC 2012-09-21 07:46:29
Writing application : mkvmerge v5.8.0 ('No Sleep / Pillow') built on Sep 2 2012 15:37:04
Writing library : libebml v1.2.3 + libmatroska v1.3.0
Video
ID : 1
Format : AVC
Format/Info : Advanced Video Codec
Format profile : High@L4.1
Format settings, CABAC : Yes
Format settings, ReFrames : 4 frames
Codec ID : V_MPEG4/ISO/AVC
Duration : 1h 33mn
Bit rate : 15.1 Mbps
Width : 1 920 pixels
Height : 1 080 pixels
Display aspect ratio : 16:9
Frame rate mode : Constant
Frame rate : 23.976 fps
Color space : YUV
Chroma subsampling : 4:2:0
Bit depth : 8 bits
Scan type : Progressive
Bits/(Pixel*Frame) : 0.304
Stream size : 9.88 GiB (94%)
Title : BDrip by Ash61
Writing library : x264 core 119 r2106 07efeb4
Encoding settings : cabac=1 / ref=4 / deblock=1:-3:-3 / analyse=0x3:0x113 / me=umh / subme=9 / psy=1 / psy_rd=1.00:0.15 / mixed_ref=1 / me_range=16 / chroma_me=1 / trellis=2 / 8x8dct=1 / cqm=0 / deadzone=21,11 / fast_pskip=1 / chroma_qp_offset=-3 / threads=12 / sliced_threads=0 / nr=0 / decimate=1 / interlaced=0 / bluray_compat=0 / constrained_intra=0 / bframes=6 / b_pyramid=2 / b_adapt=2 / b_bias=0 / direct=3 / weightb=1 / open_gop=0 / weightp=2 / keyint=250 / keyint_min=23 / scenecut=40 / intra_refresh=0 / rc_lookahead=60 / rc=crf / mbtree=1 / crf=17.0 / qcomp=0.60 / qpmin=10 / qpmax=51 / qpstep=4 / vbv_maxrate=40000 / vbv_bufsize=40000 / crf_max=0.0 / nal_hrd=none / frame-packing=4 / ip_ratio=1.40 / aq=1:0.70
Language : English
Default : Yes
Forced : No
Audio
ID : 2
Format : AC-3
Format/Info : Audio Coding 3
Mode extension : CM (complete main)
Format settings, Endianness : Big
Codec ID : A_AC3
Duration : 1h 33mn
Bit rate mode : Constant
Bit rate : 640 Kbps
Channel(s) : 6 channels
Channel positions : Front: L C R, Side: L R, LFE
Sampling rate : 48.0 KHz
Bit depth : 16 bits
Compression mode : Lossy
Stream size : 428 MiB (4%)
Title : Original
Language : English
Default : Yes
Forced : No
Menu
00:00:00.000 : :1
00:05:36.836 : :2
00:10:17.367 : :3
00:16:45.213 : :4
00:24:22.961 : :5
00:26:09.568 : :6
00:34:12.217 : :7
00:41:09.550 : :8
00:47:47.531 : :9
00:50:51.632 : :10
00:57:35.077 : :11
01:01:26.016 : :12
01:04:36.998 : :13
01:09:04.932 : :14
01:15:20.307 : :15
01:21:06.070 : :16
01:25:36.256 : :17
01:28:34.059 : :18
Благодарности релизеру (2)

Торрент:

Статус:

Размер:

Зарегистрирован   [ 2012-09-25 01:32 ]

проверено

10.51 GB