Торренты   
 
 


Марс - миссия Викинга / Mars - The Viking Mission [2012 г., HDrip, Anamorph OverUnder]

Рейтинг 3D:
1 голосов
6.0
Рейтинг фильма:
1 голосов
7.0
 
Вы должны быть авторизированы,
чтобы ставить оценки


Марс - миссия Викинга / Mars - The Viking Mission Год выпуска: 2012
Страна: США
Жанр: документальный
Продолжительность: 00:32:50
Перевод: Отсутствует
Режиссер: Kenneth L. Jones William G. Schottstardt
Описание:
Производство Стэнфордский университет и Офис Истории NASA.
Научно-исследовательский центр Эймса предоставил видеозаписи 1980-ых годов миссии Викинга NASA 1 & 2 на Марс. Саундтрек был создан в Центре Компьютерного Исследования музыки и акустики (CCRMA) в Стэнфорде под руководством Джона Чоунинга.
Первоначально сделанный в 1978, он был обновлен в 2012. 3D Эффект удивителен для своего возраста.
Доп. информация: за исходник большое спасибо Dag13!!!
Релиз группы:

Проверено на встроенном плейере ТВ LG 42LW4500

Формат 3d: Anamorph OverUnder
Видео: AVC, High@L4.1, 1920x1080, 23.976 fps, 4517 Кбит/сек
Аудио: Eng, AC3, 6 каналов, 640 Кбит/сек, 48,0 КГц

Скриншоты

MediaInfo

Код:
Общее
Уникальный идентификатор                 : 190018376076347928204253230083091427024 (0x8EF43542903D0F05BC56E8ABBFCB6ED0)
Полное имя                               : D:\3D-RuGroup\Документальные\MarsTheVikingMission.3D.2012.BD3DRip.Half.OU.x264.AC3.Eng.mkv
Формат                                   : Matroska
Версия формата                           : Version 2
Размер файла                             : 1,18 Гбайт
Продолжительность                        : 32 м.
Общий поток                              : 5158 Кбит/сек
Название фильма                          : Mars The Viking Mission rip by itsamna aka elephant
Дата кодирования                         : UTC 2012-09-24 14:00:42
Программа кодирования                    : mkvmerge v3.4.0 ('Rapunzel') сборка от May 15 2010 09:38:20
Библиотека кодирования                   : libebml v0.8.0 + libmatroska v0.9.0
Видео
Идентификатор                            : 1
Формат                                   : AVC
Формат/Информация                        : Advanced Video Codec
Профиль формата                          : High@L4.1
Параметр CABAC формата                   : Да
Параметр ReFrames формата                : 4 кадра
Идентификатор кодека                     : V_MPEG4/ISO/AVC
Продолжительность                        : 32 м.
Битрейт                                  : 4517 Кбит/сек
Ширина                                   : 1920 пикселей
Высота                                   : 1080 пикселей
Соотношение сторон                       : 16:9
Частота кадров                           : 23,976 кадра/сек
Цветовое пространство                    : YUV
Субдискретизация насыщенности            : 4:2:0
Битовая глубина                          : 8 бит
Тип развёртки                            : Прогрессивная
Бит/(Пиксели*Кадры)                      : 0.091
Размер потока                            : 1,01 Гбайт (86%)
Библиотека кодирования                   : x264 core 125 r2200 999b753
Настройки программы                      : cabac=1 / ref=4 / deblock=1:-3:-3 / analyse=0x3:0x133 / me=umh / subme=9 / psy=1 / psy_rd=1.00:0.05 / mixed_ref=1 / me_range=16 / chroma_me=1 / trellis=2 / 8x8dct=1 / cqm=0 / deadzone=21,11 / fast_pskip=0 / chroma_qp_offset=-3 / threads=3 / lookahead_threads=1 / sliced_threads=0 / nr=0 / decimate=1 / interlaced=0 / bluray_compat=0 / constrained_intra=0 / bframes=6 / b_pyramid=2 / b_adapt=2 / b_bias=0 / direct=3 / weightb=1 / open_gop=0 / weightp=2 / keyint=240 / keyint_min=23 / scenecut=40 / intra_refresh=0 / rc_lookahead=60 / rc=2pass / mbtree=1 / bitrate=4517 / ratetol=1.0 / qcomp=0.60 / qpmin=0 / qpmax=69 / qpstep=4 / cplxblur=20.0 / qblur=0.5 / vbv_maxrate=30000 / vbv_bufsize=30000 / nal_hrd=none / ip_ratio=1.40 / aq=1:0.90
Язык                                     : English
Default                                  : Нет
Forced                                   : Нет
Аудио
Идентификатор                            : 2
Формат                                   : AC-3
Формат/Информация                        : Audio Coding 3
Расширение режима                        : CM (complete main)
Идентификатор кодека                     : A_AC3
Продолжительность                        : 32 м.
Вид битрейта                             : Постоянный
Битрейт                                  : 640 Кбит/сек
Каналы                                   : 6 каналов
Расположение каналов                     : Front: L C R, Side: L R, LFE
Частота                                  : 48,0 КГц
Битовая глубина                          : 16 бит
Метод сжатия                             : С потерями
Размер потока                            : 150 Мбайт (12%)
Язык                                     : English
Default                                  : Да
Forced                                   : Нет
Благодарности релизеру (16)

Торрент:

Статус:

Размер:

Зарегистрирован   [ 2012-09-25 18:08 ]

проверено

1.18 GB