Торренты   
 
 

 

Убойное Рождество Гарольда и Кумара / A Very Harold & Kumar 3D Christmas (Тодд Штраус-Шульсон) [2011 г., Full OverUnder]

Рейтинг 3D:
9 голосов
8.0
Рейтинг фильма:
9 голосов
7.0
 
Вы должны быть авторизированы,
чтобы ставить оценки


Убойное Рождество Гарольда и Кумара / A Very Harold & Kumar 3D Christmas
Год выпуска: 2011
Страна: США
Студия: New Line Cinema, Mandate Pictures, Kingsgate Films
Жанр: Комедия
Продолжительность: 01:29:38
Перевод: Профессиональный (двухголосый закадровый)
Режиссер: Тодд Штраус-Шульсон
В ролях: Джон Чо, Кэл Пенн, Нил Патрик Харрис, Пэттон Освальт, Изабелла Жельняк, Остин Бикел, Инга Р. Уилсон, Бобби Ли, Томас Леннон, Амир Блюменфилд, Паула Гарсес, Дэнни Трехо, Марвин Круз...
Описание: Прошло шесть лет после приключения в проливе Гуантанамо. На этот раз закадычные друзья Гарольд Ли и Кумар Пател сорвали праздник, случайно спалив дотла призовую рождественскую ель тестя Гарольда.
Дополнительная информация по релизу: В фильме используется ненормативная лексика.
ВНИМАНИЕ ! :На встроенных ТВ-плейерах работать не будет!!!
Сэмпл: http://rusfolder.com/32819976
Контейнер: MKV
Формат 3D: OverUnder / Вертикальная стереопара
Порядок ракурсов: левый ракурс первый
Видео кодек: x264
Аудио кодек: AC3
Видео: AVC / 1920х1600 /16:9 / 23,976 fps / 34.7 Mbps
Аудио: Русский / AC3 / 48 KHz / 5.1 ch / 448 Kbps (DVO - Кубик в кубе)
Аудио 2: Английский / AC3 / 48 KHz / 5.1 ch / 640 Kbps

MediaInfo

General
Unique ID : 246094223068881811879034943172055474001 (0xB92405F946C7175EB48FCD63B3ED1F51)
Complete name : K:\Фильмы\A Very Harold & Kumar 3D Christmas.mkv
Format : Matroska
Format version : Version 2
File size : 23.0 GiB
Duration : 1h 29mn
Overall bit rate : 36.7 Mbps
Encoded date : UTC 2012-09-25 17:48:38
Writing application : mkvmerge v3.4.0 ('Rapunzel') сборка от May 15 2010 09:38:20
Writing library : libebml v0.8.0 + libmatroska v0.9.0
Video
ID : 1
Format : AVC
Format/Info : Advanced Video Codec
Format profile : High@L5.0
Format settings, CABAC : Yes
Format settings, ReFrames : 4 frames
Codec ID : V_MPEG4/ISO/AVC
Duration : 1h 29mn
Bit rate : 34.7 Mbps
Width : 1 920 pixels
Height : 1 600 pixels
Display aspect ratio : 1.200
Frame rate mode : Constant
Frame rate : 23.976 fps
Color space : YUV
Chroma subsampling : 4:2:0
Bit depth : 8 bits
Scan type : Progressive
Bits/(Pixel*Frame) : 0.471
Stream size : 21.7 GiB (95%)
Title : Rip by SeRoGa00
Writing library : x264 core 128 r2216kMod 198a7ea
Encoding settings : cabac=1 / ref=4 / deblock=1:-1:-1 / analyse=0x3:0x133 / me=umh / subme=9 / psy=1 / fade_compensate=0.00 / psy_rd=1.00:0.15 / mixed_ref=1 / me_range=16 / chroma_me=1 / trellis=2 / 8x8dct=1 / cqm=0 / deadzone=21,11 / fast_pskip=1 / chroma_qp_offset=-3 / threads=9 / lookahead_threads=1 / sliced_threads=0 / nr=0 / decimate=1 / interlaced=0 / bluray_compat=0 / constrained_intra=0 / bframes=6 / b_pyramid=2 / b_adapt=2 / b_bias=0 / direct=3 / weightb=1 / open_gop=0 / weightp=2 / keyint=250 / keyint_min=23 / scenecut=40 / intra_refresh=0 / rc_lookahead=60 / rc=crf / mbtree=1 / crf=18.0000 / qcomp=0.70 / qpmin=10 / qpmax=69 / qpstep=4 / vbv_maxrate=40000 / vbv_bufsize=40000 / crf_max=0.0 / nal_hrd=none / ip_ratio=1.40 / aq=1:1.00
Language : English
Default : Yes
Forced : No
Audio #1
ID : 2
Format : AC-3
Format/Info : Audio Coding 3
Mode extension : CM (complete main)
Format settings, Endianness : Big
Codec ID : A_AC3
Duration : 1h 29mn
Bit rate mode : Constant
Bit rate : 640 Kbps
Channel(s) : 6 channels
Channel positions : Front: L C R, Side: L R, LFE
Sampling rate : 48.0 KHz
Bit depth : 16 bits
Compression mode : Lossy
Stream size : 410 MiB (2%)
Language : Russian
Default : Yes
Forced : No
Audio #2
ID : 3
Format : AC-3
Format/Info : Audio Coding 3
Mode extension : CM (complete main)
Format settings, Endianness : Big
Codec ID : A_AC3
Duration : 1h 29mn
Bit rate mode : Constant
Bit rate : 640 Kbps
Channel(s) : 6 channels
Channel positions : Front: L C R, Side: L R, LFE
Sampling rate : 48.0 KHz
Bit depth : 16 bits
Compression mode : Lossy
Stream size : 410 MiB (2%)
Language : English
Default : No
Forced : No

Скриншоты


Благодарности релизеру (4)

Торрент:

Статус:

Размер:

Зарегистрирован   [ 2012-09-25 23:07 ]

проверено

22.98 GB

 
 Мнение о фильме (1)





Забавный, туповатый юмор, под пиво с друзьями в самый раз!!! 3-д тоже хорошее
 
Алексей "51" Профиль 03-Окт-2013 01:33