Торренты   
 
 

 

Макай. Искатели приключений в затерянном мире / Makay, les aventuriers d un monde perdu / Makay, The Lost World (2011, BDrip, half1080p, Anamorph OverUnder) Eng

Рейтинг 3D:
2 голосов
8.5
Рейтинг фильма:
2 голосов
7.0
 
Вы должны быть авторизированы,
чтобы ставить оценки


Макай. Искатели приключений в затерянном миреMakay, les aventuriers d'un monde perduMakay, The Lost World
Год выпуска: 2011
Страна: Франция (Canal+)
Жанр: Документальный
Продолжительность: 01:29:43
Перевод: Отсутствует
Режиссер: Пьер Стайн / Pierre Stine
Главный герой: Evrard Wendenbaum
Описание: Фильм об экспедиции в горный массив Макай на острове Мадагаскар.
Доп. информация: Имевшийся в первые ~4 минуты на исходном БД временной рассинхрон ракурсов (в 1 кадр) - исправил.
Некоторые эпизоды сняты в 2Д (насколько я заметил, их немного в фильме). Смотрите под спойлером "Для оценки качества 3Д...".-- .
Проверено на встроенном плейере ТВ Samsung UE-C7000
--Формат 3D: Anamorph OverUnder
Качество: BDrip
Контейнер: MKV-Видео: AVC / 23,976 fps / 1920х1080p / 18.2 Mbps
Аудио: Английский / AC3 / 48 KHz / 5.1 ch / 640 Kbps
Субтитры: Отсутствуют

MediaInfo

General
Unique ID : 238959403113852583348170339801108716045 (0xB3C5E830D2CE72DBAC1F59D20E821A0D)
Complete name : G:\Downloads\Makay.TheLostWorld(3D)2012.halfOU(Ash61)Eng.mkv
Format : Matroska
Format version : Version 2
File size : 12.0 GiB
Duration : 1h 29mn
Overall bit rate : 19.2 Mbps
Encoded date : UTC 2012-08-27 14:26:54
Writing application : mkvmerge v3.4.0 ('Rapunzel') сборка от May 15 2010 09:38:20
Writing library : libebml v0.8.0 + libmatroska v0.9.0
Video
ID : 1
Format : AVC
Format/Info : Advanced Video Codec
Format profile : High@L4.1
Format settings, CABAC : Yes
Format settings, ReFrames : 4 frames
Codec ID : V_MPEG4/ISO/AVC
Duration : 1h 29mn
Bit rate : 18.2 Mbps
Width : 1 920 pixels
Height : 1 080 pixels
Display aspect ratio : 16:9
Frame rate mode : Constant
Frame rate : 23.976 fps
Color space : YUV
Chroma subsampling : 4:2:0
Bit depth : 8 bits
Scan type : Progressive
Bits/(Pixel*Frame) : 0.366
Stream size : 11.4 GiB (95%)
Title : BDrip by Ash61 (рассинхрон ракурсов в первых 4 минутах БД исправлен)
Writing library : x264 core 119 r2106 07efeb4
Encoding settings : cabac=1 / ref=4 / deblock=1:-3:-3 / analyse=0x3:0x113 / me=umh / subme=9 / psy=1 / psy_rd=1.00:0.15 / mixed_ref=1 / me_range=16 / chroma_me=1 / trellis=2 / 8x8dct=1 / cqm=0 / deadzone=21,11 / fast_pskip=1 / chroma_qp_offset=-3 / threads=3 / sliced_threads=0 / nr=0 / decimate=1 / interlaced=0 / bluray_compat=0 / constrained_intra=0 / bframes=6 / b_pyramid=2 / b_adapt=2 / b_bias=0 / direct=3 / weightb=1 / open_gop=0 / weightp=2 / keyint=250 / keyint_min=23 / scenecut=40 / intra_refresh=0 / rc_lookahead=60 / rc=crf / mbtree=1 / crf=18.0 / qcomp=0.60 / qpmin=10 / qpmax=51 / qpstep=4 / vbv_maxrate=40000 / vbv_bufsize=40000 / crf_max=0.0 / nal_hrd=none / frame-packing=4 / ip_ratio=1.40 / aq=1:0.70
Language : French
Default : Yes
Forced : No
Audio
ID : 2
Format : AC-3
Format/Info : Audio Coding 3
Mode extension : CM (complete main)
Format settings, Endianness : Big
Codec ID : A_AC3
Duration : 1h 29mn
Bit rate mode : Constant
Bit rate : 640 Kbps
Channel(s) : 6 channels
Channel positions : Front: L C R, Side: L R, LFE
Sampling rate : 48.0 KHz
Bit depth : 16 bits
Compression mode : Lossy
Stream size : 411 MiB (3%)
Language : English
Default : Yes
Forced : No
Menu
00:00:00.000 : :1
00:07:41.419 : :2
00:17:33.219 : :3
00:22:25.344 : :4
00:29:42.781 : :5
00:37:03.555 : :6
00:43:57.885 : :7
00:53:13.357 : :8
01:00:33.755 : :9
01:07:14.697 : :10
01:15:46.751 : :11
01:26:28.725 : :12

Для оценки качества 3Д - Чёрно-белые скрины в анаглифе (где отсутствует красно-голубое двоение - это 2Д эпизод)

Благодарности релизеру (1)

Торрент:

Статус:

Размер:

Зарегистрирован   [ 2012-09-25 23:31 ]

проверено

12.05 GB