Торренты   
 
 

 

Эверглейдс: Ламантины Кристальной реки / Abenteuer Everglades: Die Manatis des Crystal River / Adventure Everglades: The Manatees of Crystal River [2012, BDrip, half1080p, Anamorph OverUnder]

Рейтинг 3D:
6 голосов
7.5
Рейтинг фильма:
5 голосов
6.6
 
Вы должны быть авторизированы,
чтобы ставить оценки


Эверглейдс: Ламантины Кристальной рекиAbenteuer Everglades: Die Manatis des Crystal RiverAdventure Everglades: The Manatees of Crystal River- Год выпуска: 2012
Страна: Германия (New KSM)
Жанр: Документальный
Продолжительность: 00:53:59
Перевод: Одноголосый закадровый (BD3D)
Режиссер: Jürgen Klimmeck
Продюсер: Benjamin Krause
Описание: Национальный парк Эверглейдс находится в США, в южной части штата Флорида. Его уникальные ландшафты, покрытые изумрудным ковром субтропические леса, пресноводные водоемы с множеством разнообразных обитателей, формируют уникальную экосистему, где находится крупнейшее в мире пресноводное болото.
В зеркальных водах Эверглейдса встречается более 150 видов рыб. На мелководье обитает Флоридский ламантин, которого еще называют морская корова. Эти симпатичные, удивительно миролюбивые и неторопливые животные, которые занесены в Красную книгу, ежегодно привлекают сотни тысяч туристов со всех частей света.--Релиз на DVD и Blu-Ray: 26-27 июня 2013
.
--Качество: BDRip (by Ash61)
Формат 3d: Anamorph OverUnder / Вертикальная анаморфная стереопара
Контейнер: MKV-Видео: AVC / 23,976 fps / 1920х1080p / 16.7 Mbps
Аудио:
#1 - Русский / AC3 / 48 KHz / 5.1 ch / 640 Kbps (VO - BD3D)
#2 - Английский / AC3 / 48 KHz / 5.1 ch / 640 Kbps
Субтитры: Отсутствуют

MediaInfo

General
Unique ID : 228935771828155925724970401241934554380 (0xAC3B6D033AB231EF8EFFB3F82D0B650C)
Complete name : G:\Downloads\AbenteuerEverglades(3D-halfOU)2012(Ash61).mkv
Format : Matroska
Format version : Version 2
File size : 6.91 GiB
Duration : 54mn 0s
Overall bit rate : 18.3 Mbps
Movie name : Эверглейдс 3D: Ламантины Кристальной реки / Abenteuer Everglades: Die Manatis des Crystal River (3D) 2012
Encoded date : UTC 2013-08-01 16:06:15
Writing application : mkvmerge v5.8.0 ('No Sleep / Pillow') built on Sep 2 2012 15:37:04
Writing library : libebml v1.2.3 + libmatroska v1.3.0
Video
ID : 1
Format : AVC
Format/Info : Advanced Video Codec
Format profile : High@L4.1
Format settings, CABAC : Yes
Format settings, ReFrames : 4 frames
Codec ID : V_MPEG4/ISO/AVC
Duration : 54mn 0s
Bit rate : 16.7 Mbps
Width : 1 920 pixels
Height : 1 080 pixels
Display aspect ratio : 16:9
Frame rate mode : Constant
Frame rate : 23.976 fps
Color space : YUV
Chroma subsampling : 4:2:0
Bit depth : 8 bits
Scan type : Progressive
Bits/(Pixel*Frame) : 0.335
Stream size : 6.29 GiB (91%)
Title : BDRip by Ash61
Writing library : x264 core 119 r2106 07efeb4
Encoding settings : cabac=1 / ref=4 / deblock=1:-1:-1 / analyse=0x3:0x113 / me=umh / subme=9 / psy=1 / psy_rd=1.00:0.15 / mixed_ref=1 / me_range=16 / chroma_me=1 / trellis=2 / 8x8dct=1 / cqm=0 / deadzone=21,11 / fast_pskip=1 / chroma_qp_offset=-3 / threads=12 / sliced_threads=0 / nr=0 / decimate=1 / interlaced=0 / bluray_compat=0 / constrained_intra=0 / bframes=6 / b_pyramid=2 / b_adapt=2 / b_bias=0 / direct=3 / weightb=1 / open_gop=0 / weightp=2 / keyint=250 / keyint_min=23 / scenecut=40 / intra_refresh=0 / rc_lookahead=60 / rc=crf / mbtree=1 / crf=18.0 / qcomp=0.60 / qpmin=10 / qpmax=51 / qpstep=4 / vbv_maxrate=40000 / vbv_bufsize=40000 / crf_max=0.0 / nal_hrd=none / frame-packing=4 / ip_ratio=1.40 / aq=1:0.70
Language : German
Default : Yes
Forced : No
Audio #1
ID : 2
Format : AC-3
Format/Info : Audio Coding 3
Mode extension : CM (complete main)
Format settings, Endianness : Big
Codec ID : A_AC3
Duration : 54mn 0s
Bit rate mode : Constant
Bit rate : 640 Kbps
Channel(s) : 6 channels
Channel positions : Front: L C R, Side: L R, LFE
Sampling rate : 48.0 KHz
Bit depth : 16 bits
Compression mode : Lossy
Stream size : 247 MiB (3%)
Title : Одноголосый закадровый - BD3D
Language : Russian
Default : Yes
Forced : No
Audio #2
ID : 3
Format : AC-3
Format/Info : Audio Coding 3
Mode extension : CM (complete main)
Format settings, Endianness : Big
Codec ID : A_AC3
Duration : 54mn 0s
Bit rate mode : Constant
Bit rate : 640 Kbps
Channel(s) : 6 channels
Channel positions : Front: L C R, Side: L R, LFE
Sampling rate : 48.0 KHz
Bit depth : 16 bits
Compression mode : Lossy
Stream size : 247 MiB (3%)
Language : English
Default : No
Forced : No
Menu
00:00:00.000 : :1
00:15:22.505 : :2
00:25:10.509 : :3
00:35:34.591 : :4
00:53:17.277 : :5

Скриншоты

Для оценки качества 3Д: Анимированные скрины

1.08.2013 - Релиз обновлён - добавлена русская дорога.
Желающие, скачайте заново торрент-файл.
Благодарности релизеру (23)

Торрент:

Статус:

Размер:

Зарегистрирован   [ 2013-08-01 21:06 ]

проверено

6.91 GB

 
 Мнение о фильме (12)





на немцком или на английском фильм?без перевода понятие растяжимое
 

megadeath, посмотрите строку "Аудио"...
 

а перевод намечяетса?
 

kroom, очень навряд ли.
 

фильм то немецкий.я и подумал,может повезет и он в оригинале.но раз уже переведен,то не повезло
 

megadeath Могу посоветовать способ которым пользуюсь я сам.
Скачиваеш с "tracker.hdclub.com.ua" оригинал, в данном случае это (Название: Abenteuer Everglades 3D: Die Manatis des Crystal River
Год выхода: 2012
Жанр: докуметнальный
Режиссер: Jürgen Klimmeck
Описание:
Machen Sie sich bereit für eine faszinierende Reise zu den Everglades und erkunden Sie mit dieser Veröffentlichung die Manatis des Crystal River. Dabei können Sie die Rundschwanzseekühe in ihrem natürlichen Lebensraum so hautnah wie niemals zuvor erleben und erhalten so einen tiefen Einblick in das Leben dieses sonst eher unbekannten Säugetiers.
Выпущено: Германия | KSM
Продолжительность: 00:54:00
Audio Formats
English DTS-HD MA 5.1 (48 kHz / 3798 kbps / 24-bit)
German DTS-HD MA 5.1 (48 kHz / 3798 kbps / 24-bit)
и сам заменяешь звук !!!
 

Сорри, ochotnik, закрутился и забыл... :) Сейчас вытащу звук в АС3 и залью на Майл.ру. Ссылку выложу здесь.
 

Немецкая дорога к этому релизу в АС3 - http://files.mail.ru/3O0RZU
 

вот спасибо большое.немецкие документалки вообще обожаю.умеют снимать
 

Фильм впечетляет.3D на уровне и сюжет необычный,а то подводный мир и рыбки поднаскучили
 

Фильм понравился.Хорошие съемки.Большое спасибо.
 

Клёвые морские коровы! Довольно необычные и милые существа, фильм хороший, 3Д отличное. Спасибо!!!