Торренты   
 
 

 

Пираньи 3DD / Piranha 3DD (Джон Гулажер) [2012 г.,BDRip 1080p, Full OverUnder]

Рейтинг 3D:
33 голосов
7.2
Рейтинг фильма:
35 голосов
4.9
 
Вы должны быть авторизированы,
чтобы ставить оценки


Пираньи 3DD / Piranha 3DD
Год выпуска: 2012
Страна: США, Dimension Films
Жанр: Ужасы, комедия, триллер
Продолжительность: 01:22:41
Перевод: Профессиональный (полное дублирование)
Режиссер: Джон Гулажер
В ролях: Даниэль Панабэйкер, Мэтт Буш, Дэвид Кокнер, Жан-Люк Билодо, Крис Зилка, Катрина Боуден, Адриан Мартинез, Пол Джеймс, Мэган Тэнди, Дэвид Хэсселхофф, Кристофер Ллойд
Описание: Доисторические твари больше не будут ограничиваться поеданием туристов на озере, а !икнут через водопроводные и канализационные сети в бассейны и иные искусственные водоемы нового аквапарка под названием Wilderness Waters. Именно там и развернется основное действие.
Формат 3d: OverUnder
Видео: AVC, High@L5.0, 1920x2160, 23.976 fps, 34,4 Мбит/сек
Аудио: Rus, AC3, 6 каналов, 384 Кбит/сек, 48,0 КГц
Аудио: Eng, DTS, 6 каналов, 1510 Кбит/сек, 48,0 КГц

Скриншоты





MediaInfo

Общее
Уникальный идентификатор : 216847793710907327736030105888814587023 (0xA3235DAD78B0E7D4ACC84E713150DC8F)
Полное имя : E:\Стерео\Piranha 3DD .mkv
Формат : Matroska
Версия формата : Version 2
Размер файла : 21,4 Гбайт
Продолжительность : 1 ч. 22 м.
Общий поток : 37,1 Мбит/сек
Название фильма : Rip by Dag13
Дата кодирования : UTC 2012-09-27 13:38:44
Программа кодирования : mkvmerge v3.4.0 ('Rapunzel') сборка от May 15 2010 09:38:20
Библиотека кодирования : libebml v0.8.0 + libmatroska v0.9.0
Видео
Идентификатор : 1
Формат : AVC
Формат/Информация : Advanced Video Codec
Профиль формата : High@L5.0
Параметр CABAC формата : Да
Параметр ReFrames формата : 4 кадра
Идентификатор кодека : V_MPEG4/ISO/AVC
Продолжительность : 1 ч. 22 м.
Битрейт : 34,4 Мбит/сек
Ширина : 1920 пикселей
Высота : 2160 пикселей
Соотношение сторон : 0,889
Режим частоты кадров : Постоянный
Частота кадров : 23,976 кадра/сек
Цветовое пространство : YUV
Субдискретизация насыщенности : 4:2:0
Битовая глубина : 8 бит
Тип развёртки : Прогрессивная
Бит/(Пиксели*Кадры) : 0.346
Размер потока : 19,9 Гбайт (93%)
Библиотека кодирования : x264 core 120 r2145 748fe16
Настройки программы : cabac=1 / ref=4 / deblock=1:-3:-2 / analyse=0x3:0x113 / me=umh / subme=9 / psy=1 / psy_rd=1.00:0.00 / mixed_ref=1 / me_range=16 / chroma_me=1 / trellis=1 / 8x8dct=1 / cqm=0 / deadzone=21,11 / fast_pskip=1 / chroma_qp_offset=-2 / threads=9 / sliced_threads=0 / nr=0 / decimate=1 / interlaced=0 / bluray_compat=0 / constrained_intra=0 / bframes=6 / b_pyramid=0 / b_adapt=2 / b_bias=0 / direct=3 / weightb=1 / open_gop=0 / weightp=2 / keyint=250 / keyint_min=23 / scenecut=40 / intra_refresh=0 / rc_lookahead=60 / rc=crf / mbtree=1 / crf=18.0 / qcomp=0.60 / qpmin=0 / qpmax=69 / qpstep=4 / ip_ratio=1.40 / aq=1:1.00
Язык : English
Default : Нет
Forced : Нет
Аудио #1
Идентификатор : 2
Формат : AC-3
Формат/Информация : Audio Coding 3
Расширение режима : CM (complete main)
Параметр Endianness формата : Big
Идентификатор кодека : A_AC3
Продолжительность : 1 ч. 22 м.
Вид битрейта : Постоянный
Битрейт : 384 Кбит/сек
Каналы : 6 каналов
Расположение каналов : Front: L C R, Side: L R, LFE
Частота : 48,0 КГц
Битовая глубина : 16 бит
Метод сжатия : С потерями
Размер потока : 227 Мбайт (1%)
Язык : Russian
Default : Да
Forced : Нет
Аудио #2
Идентификатор : 3
Формат : DTS
Формат/Информация : Digital Theater Systems
Идентификатор кодека : A_DTS
Продолжительность : 1 ч. 22 м.
Вид битрейта : Постоянный
Битрейт : 1510 Кбит/сек
Каналы : 6 каналов
Расположение каналов : Front: L C R, Side: L R, LFE
Частота : 48,0 КГц
Битовая глубина : 16 бит
Метод сжатия : С потерями
Размер потока : 893 Мбайт (4%)
Язык : English
Default : Нет
Forced : Нет
На встроенных ТВ-плейерах показывать НЕ будет!!!
Остальные раздачи этого фильма (3)
Благодарности релизеру (11)

Торрент:

Статус:

Размер:

Зарегистрирован   [ 2012-09-27 18:09 ]

проверено

21.41 GB

 
 Мнение о фильме (10)





Мне понравился стоит просмотра тому кто смотрел первую часть, а так фильм на любителя в некоторых местах 3д шикарное (lg lw4500)
 

Эффект 3D в этом фильме я бы определил на троечку. Снято настоящими 3d камерами, но, похоже, полупрофессиональными. Иначе как объяснить тот факт, что в некоторых сценах глаза аж разъезжаются до боли, а в некоторых ощущения плоскости, как при конверте?
Сюжет дебилен. Концовка вообще жесть!
Посмотреть на раз.
 

скачал от безделья))) фильм гомно.много сисек и крови
 

Согласен, сюжет ожидаемый после первого фильма. Ну , а концовка, вах! Взял для коллекции. Один раз посмотреть можно. 3D в целом нормальное.
 

В Пираньи 3ДД на первой минуте пропадает звук на несколько десятков секунд. 3Д-хорошее, звук на уровне, школьные оценки ставить воздерживаюсь. Что касается жанра-или чёрная комедия, или комедия ситуаций (на фильм ужасов ну никак не подходит), то мне периодически нравиться это смотреть. А вообще у меня возникли проблемы с моим нынешним провайдером. Дело в том , что купил на Болоте, именуемым в здешних краях Берлином, лицензионное ПО(и стоит оно там совсем недорого, да и назад ещё цурикают 14%). А установив его вместо распостранённого Zver(оно не проходило и не пройдёт проверки Майкрософт), чтобы они там не писали на коробках, да и на самих дисках. Прокатит 1-5 раз - рано или поздно всё равно пропустишь их контролёра при обновлении, даже если знаешь как он выглядит. А если вступить в доблестные ряды борцов с нелицензионным программным обеспечением, то это вылезет сразу. Защитник же Окон и Брандмауэр ,по иному, работают далеко не в полной мере(за 2 часа ползания по мебельным сайтам они обнаружили 167 перехватчиков клавиатуры, копировщиков экрана, троянов и червей, перенаправлений(антивирус может недостаточно быстро среагировать, либо даже пропустить), так что желание пользоваться какими-либо кредитными картами отпало, деньги и раньше пропадали, но это очень наглядно. Поскольку у моего провайдера истёк сертификат, да и куча нелиц. ПО. брандмауэр переходит в режим повышенной безопастности и отключает почти все входящие и исходящие типы сетевых соединений, если же администрированием их включить, то торрент клиент отдаёт в 2 раза больше, чем качает, а т.к. скорость закачки 25 МБит в с, то закачка происходит крайне медленно, они с этим ничего не делают, значт надо искать другогих(тот будет скорее всего таким-же).Убирать-же ПО пока не хочу(я обнаружил у себя способности ругаться, писать и командовать компом даже по-мандарински, не говоря о прочих разных языках),правда для этого сначала приходиться потыкать на изрядное количество кнопок.Так что я сейчас занят бессмысленной перепиской с провайдёрами, качаю-же пока для эксперимента, меняя настройки и высматривая, что из этого получиться-ничего пока не меняется-видимо придётся возвращаться к пиратам, несмотря на большую любовь к Тайваню, мандаринам и прочим удобствам.Главным образом из-за того, что это очень часто встречается в том, что называется рунетом.
 

фильм не очень...
 

момент с пенисом противный...
 

Разок глянуть можно,но детей до экрана не пускать.спасибо)))
 

Продолжение)))
 

что сделают??
!икнут через водопроводные и канализационные сети в бассейны
фильм гумно, но моменты есть смешные прямо до ржача... из за тупизны всмысле