Торренты   
 
 

 

Fire Ants: The Invincible Army / Огненные муравьи: Непобедимая армия (Michael Watchulonis) [2012 г., BDRip 1080p, Full OverUnder]

Рейтинг 3D:
7 голосов
8.6
Рейтинг фильма:
6 голосов
6.7
 
Вы должны быть авторизированы,
чтобы ставить оценки


Fire Ants: The Invincible Army / Огненные муравьи: Непобедимая армия
Год выпуска: 2012
Жанр: документальный
Продолжительность: 00:48
Перевод: Отсутствует
Режиссер: Michael Watchulonis
В ролях: Насекомые
Описание: Больше 80 лет Solenopsis Invicta (Муравей огненный импортный красный (лат.) ) мигрировал через все Соединенные Штаты, нанося ущерб около шести миллиардов долларов ежегодно. Погибал урожай, выходило из строя оборудование. Немало средств уходило на дезинсекцию.
Они завоевали более 320 миллионов акров земли в 13 государствах и убили, по крайней мере, 80 человек. И они до сих пор представляют опасность. Повсеместно.
На сегодняшний день ученые нашли способ борьбы с этим страшным вредителем. Им стало выведение крылатых убийц, которые отслеживают и уничтожают огненных муравьев.
Потрясающая 3D макросъемка исследует тайный мир огненных муравьев и помогает современным исследованиям в борьбе с этой страшной угрозой.
Формат 3D: OverUnder
Видео: AVC, High@L5.0, 1920x2160, 23.976 fps, 22,8 Мбит/сек
Аудио: Eng, DTS, 6 каналов, 1510 Кбит/сек, 48,0 КГц

Скриншоты





Анаглиф





MediaInfo

Общее
Уникальный идентификатор : 210342453756015066174933945179882646042 (0x9E3E7BA79F3F707281CAD51958CFEA1A)
Полное имя : E:\Стерео\Fire Ants_The Invincible Army 1080p.mkv
Формат : Matroska
Версия формата : Version 2
Размер файла : 8,34 Гбайт
Продолжительность : 48 м.
Общий поток : 24,8 Мбит/сек
Название фильма : Rip by Dag13
Дата кодирования : UTC 2012-09-28 04:59:23
Программа кодирования : mkvmerge v3.4.0 ('Rapunzel') сборка от May 15 2010 09:38:20
Библиотека кодирования : libebml v0.8.0 + libmatroska v0.9.0
Видео
Идентификатор : 1
Формат : AVC
Формат/Информация : Advanced Video Codec
Профиль формата : High@L5.0
Параметр CABAC формата : Да
Параметр ReFrames формата : 4 кадра
Идентификатор кодека : V_MPEG4/ISO/AVC
Продолжительность : 48 м.
Битрейт : 22,8 Мбит/сек
Ширина : 1920 пикселей
Высота : 2160 пикселей
Соотношение сторон : 0,889
Режим частоты кадров : Постоянный
Частота кадров : 23,976 кадра/сек
Цветовое пространство : YUV
Субдискретизация насыщенности : 4:2:0
Битовая глубина : 8 бит
Тип развёртки : Прогрессивная
Бит/(Пиксели*Кадры) : 0.229
Размер потока : 7,66 Гбайт (92%)
Библиотека кодирования : x264 core 120 r2145 748fe16
Настройки программы : cabac=1 / ref=4 / deblock=1:-2:-2 / analyse=0x3:0x113 / me=umh / subme=9 / psy=1 / psy_rd=1.00:0.00 / mixed_ref=1 / me_range=16 / chroma_me=1 / trellis=1 / 8x8dct=1 / cqm=0 / deadzone=21,11 / fast_pskip=1 / chroma_qp_offset=-2 / threads=9 / sliced_threads=0 / nr=0 / decimate=1 / interlaced=0 / bluray_compat=0 / constrained_intra=0 / bframes=6 / b_pyramid=0 / b_adapt=2 / b_bias=0 / direct=3 / weightb=1 / open_gop=0 / weightp=2 / keyint=250 / keyint_min=23 / scenecut=40 / intra_refresh=0 / rc_lookahead=60 / rc=crf / mbtree=1 / crf=18.0 / qcomp=0.60 / qpmin=0 / qpmax=69 / qpstep=4 / ip_ratio=1.40 / aq=1:1.00
Язык : English
Default : Нет
Forced : Нет
Аудио
Идентификатор : 2
Формат : DTS
Формат/Информация : Digital Theater Systems
Идентификатор кодека : A_DTS
Продолжительность : 48 м.
Вид битрейта : Постоянный
Битрейт : 1510 Кбит/сек
Каналы : 2 канала
Расположение каналов : Front: L R
Частота : 48,0 КГц
Битовая глубина : 24 бит
Метод сжатия : С потерями
Размер потока : 519 Мбайт (6%)
Язык : English
Default : Да
Forced : Нет
На встроенных ТВ-плейерах показывать НЕ будет!!!
Остальные раздачи этого фильма (2)
Благодарности релизеру (3)

Торрент:

Статус:

Размер:

Зарегистрирован   [ 2012-09-28 15:20 ]

проверено

8.34 GB