Торренты   
 
 

 

Погружение - В царстве диких акул / Dive - Im Reich der wilden Haie [2012 г., BDRip 1080p, Full OverUnder]

Рейтинг 3D:
1 голосов
9.0
Рейтинг фильма:
1 голосов
7.0
 
Вы должны быть авторизированы,
чтобы ставить оценки


Погружение - В царстве диких акул / Dive - Im Reich der wilden Haie
Год выпуска: 2012
Страна: Германия
Жанр: документальный
Продолжительность: 01:00
Перевод: Отсутствует
Описание: В 3-ем томе "Dive 3D" вновь увидим богатство красок удивительного, и не похожего на тот, что окружает нас с вами подводного мира. Акулы особенно не разбираются - и аквалангисты для них тоже прекрасная закуска, как конфетка в фантике. Изучайте многогранные виды живых существ и растений западного побережья Южной Африки в домашних условиях. Вниз в глубокий синий цвет, вниз в чудесный и все же чужой мир. Невероятные 3D-съемки создадут впечатление, что вы сами находитесь под водой.
Формат 3D: OverUnder
Видео: AVC, High@L5.0, 1920x2160, 23.976 fps, 36,0 Мбит/сек
Аудио: Eng, DTS, 6 каналов, 1510 Кбит/сек, 48,0 КГц

Скриншоты




Анаглиф




MediaInfo

Общее
Уникальный идентификатор : 241569380582980932580352617800677882654 (0xB5BC9203D88DA33095709A8FFFF27B1E)
Полное имя : E:\Стерео\Dive_ Im Reich der wilden Haie 1080p.mkv
Формат : Matroska
Версия формата : Version 2
Размер файла : 16,3 Гбайт
Продолжительность : 1 ч. 0 м.
Общий поток : 38,3 Мбит/сек
Название фильма : Rip by Dag13
Дата кодирования : UTC 2012-09-29 04:53:28
Программа кодирования : mkvmerge v3.4.0 ('Rapunzel') сборка от May 15 2010 09:38:20
Библиотека кодирования : libebml v0.8.0 + libmatroska v0.9.0
Видео
Идентификатор : 1
Формат : AVC
Формат/Информация : Advanced Video Codec
Профиль формата : High@L5.0
Параметр CABAC формата : Да
Параметр ReFrames формата : 4 кадра
Идентификатор кодека : V_MPEG4/ISO/AVC
Продолжительность : 1 ч. 0 м.
Битрейт : 36,0 Мбит/сек
Ширина : 1920 пикселей
Высота : 2160 пикселей
Соотношение сторон : 0,889
Режим частоты кадров : Постоянный
Частота кадров : 23,976 кадра/сек
Цветовое пространство : YUV
Субдискретизация насыщенности : 4:2:0
Битовая глубина : 8 бит
Тип развёртки : Прогрессивная
Бит/(Пиксели*Кадры) : 0.362
Размер потока : 15,3 Гбайт (94%)
Библиотека кодирования : x264 core 120 r2145 748fe16
Настройки программы : cabac=1 / ref=4 / deblock=1:-3:-3 / analyse=0x3:0x113 / me=umh / subme=9 / psy=1 / psy_rd=1.00:0.00 / mixed_ref=1 / me_range=16 / chroma_me=1 / trellis=1 / 8x8dct=1 / cqm=0 / deadzone=21,11 / fast_pskip=1 / chroma_qp_offset=-2 / threads=9 / sliced_threads=0 / nr=0 / decimate=1 / interlaced=0 / bluray_compat=0 / constrained_intra=0 / bframes=6 / b_pyramid=0 / b_adapt=2 / b_bias=0 / direct=3 / weightb=1 / open_gop=0 / weightp=2 / keyint=250 / keyint_min=23 / scenecut=40 / intra_refresh=0 / rc_lookahead=60 / rc=crf / mbtree=1 / crf=18.0 / qcomp=0.60 / qpmin=0 / qpmax=69 / qpstep=4 / ip_ratio=1.40 / aq=1:1.00
Язык : English
Default : Нет
Forced : Нет
Аудио
Идентификатор : 2
Формат : DTS
Формат/Информация : Digital Theater Systems
Идентификатор кодека : A_DTS
Продолжительность : 1 ч. 0 м.
Вид битрейта : Постоянный
Битрейт : 1510 Кбит/сек
Каналы : 2 канала
Расположение каналов : Front: L R
Частота : 48,0 КГц
Битовая глубина : 16 бит
Метод сжатия : С потерями
Размер потока : 656 Мбайт (4%)
Язык : English
Default : Да
Forced : Нет
На встроенных ТВ-плейерах показывать НЕ будет!!!
Благодарности релизеру (3)

Торрент:

Статус:

Размер:

Зарегистрирован   [ 2012-09-29 09:32 ]

проверено

16.27 GB