Торренты   
 
 

 

История мира в двух часах / History of the World in Two Hours [2011, BDrip, half1080p, Anamorph OverUnder]

Рейтинг 3D:
23 голосов
7.2
Рейтинг фильма:
19 голосов
8.9
 
Вы должны быть авторизированы,
чтобы ставить оценки


История мира в двух часах
History of the World in Two Hours
Год выпуска: 2011
Страна: США (History Channel)
Жанр: Документальный
Продолжительность: 01:28:03
Перевод: Многоголосый закадровый (канал "Культура")
Режиссер: Дуглас Коэн / Douglas J. Cohen
Рассказчик по-английски: Corey Burton (закадровый)
Эксперты в фильме: Alex Flippenko (астрофизик, Univ. of California - Berkeley), Peter Ward (палеонтолог, Univ. of Washington), Clifford Johnson (физик, Univ. of Southern California), Jonathan Markley (историк, California State Univ. - Fullerton), Russell Shapiro (геолог, California State Univ.- Chico), Glen MacDonald (директор UCLA Institute of the Environment), Jonathan Cohen (биолог, SUNY ESF - Syracuse), Robert Bakker (палеонтолог, Houston Museum of Natural Science), Trevor Valle (палеонтолог, Page Museum - La Brea Tar Pits), Nicole Waguespack (археолог, Univ. of Wyoming), John Shea (палео-антрополог, SUNY - Stony Brook), Todd Surovell (археолог, Univ. of Wyoming), Craig Benjamin (соавтор "Big History: Between Nothing and Everything"), Martin K.A. Morgan (военный историк).
Описание: Краткая история мира от Большого взрыва до нашего времени.
Доп. информация: Фильм красивый, динамичный и очень познавательный!
Часть фильма снята в 2Д (эти эпизоды реализованы в псевдо-3Д).
Говорю честно - русскую дорогу отредактировал на скорую руку (тем не менее, всё вполне прилично, ИМХО)-- . . Проверено на встроенном плейере ТВ Samsung UE-C7000--Формат 3D: Anamorph OverUnder
Качество: BDrip
Контейнер: MKV--Видео: AVC / 23,976 fps / 1920х1080p / 13.0 Mbps
Аудио:
#1 - Русский / AC3 / 48 KHz / 2 ch / 192 Kbps (канал "Культура")
#2 - Английский / AC3 / 48 KHz / 5.1 ch / 640 Kbps
Субтитры вшитые softsub (SRT): Русские полные

MediaInfo

General
Unique ID : 193273901790234467743110034602668750104 (0x91673311F30FDBF2ABD29699A82E7518)
Complete name : G:\Downloads\HistoryOfTheWorldInTwoHours(3D)2011.halfOU(Ash61).mkv
Format : Matroska
Format version : Version 2
File size : 8.65 GiB
Duration : 1h 28mn
Overall bit rate : 14.1 Mbps
Movie name : History Of The World In Two Hours (3D) 2011 (by Ash61)
Encoded date : UTC 2012-09-29 19:21:27
Writing application : mkvmerge v5.8.0 ('No Sleep / Pillow') built on Sep 2 2012 15:37:04
Writing library : libebml v1.2.3 + libmatroska v1.3.0
Video
ID : 1
Format : AVC
Format/Info : Advanced Video Codec
Format profile : High@L4.1
Format settings, CABAC : Yes
Format settings, ReFrames : 4 frames
Codec ID : V_MPEG4/ISO/AVC
Bit rate : 13.0 Mbps
Width : 1 920 pixels
Height : 1 080 pixels
Display aspect ratio : 16:9
Frame rate mode : Variable
Original frame rate : 23.976 fps
Color space : YUV
Chroma subsampling : 4:2:0
Bit depth : 8 bits
Scan type : Progressive
Title : BDrip by Ash61
Writing library : x264 core 119 r2106 07efeb4
Encoding settings : cabac=1 / ref=4 / deblock=1:-3:-3 / analyse=0x3:0x113 / me=umh / subme=9 / psy=1 / psy_rd=1.00:0.15 / mixed_ref=1 / me_range=16 / chroma_me=1 / trellis=2 / 8x8dct=1 / cqm=0 / deadzone=21,11 / fast_pskip=1 / chroma_qp_offset=-3 / threads=3 / sliced_threads=0 / nr=0 / decimate=1 / interlaced=0 / bluray_compat=0 / constrained_intra=0 / bframes=6 / b_pyramid=2 / b_adapt=2 / b_bias=0 / direct=3 / weightb=1 / open_gop=0 / weightp=2 / keyint=250 / keyint_min=23 / scenecut=40 / intra_refresh=0 / rc_lookahead=60 / rc=crf / mbtree=1 / crf=17.5 / qcomp=0.60 / qpmin=10 / qpmax=51 / qpstep=4 / vbv_maxrate=40000 / vbv_bufsize=40000 / crf_max=0.0 / nal_hrd=none / frame-packing=4 / ip_ratio=1.40 / aq=1:0.70
Language : English
Default : Yes
Forced : No
Audio #1
ID : 2
Format : AC-3
Format/Info : Audio Coding 3
Mode extension : CM (complete main)
Format settings, Endianness : Big
Codec ID : A_AC3
Duration : 1h 28mn
Bit rate mode : Constant
Bit rate : 192 Kbps
Channel(s) : 2 channels
Channel positions : Front: L R
Sampling rate : 48.0 KHz
Bit depth : 16 bits
Compression mode : Lossy
Stream size : 121 MiB (1%)
Title : Аудио дорога с канала Культура (edit by Ash61)
Language : Russian
Default : Yes
Forced : No
Audio #2
ID : 3
Format : AC-3
Format/Info : Audio Coding 3
Mode extension : CM (complete main)
Format settings, Endianness : Big
Codec ID : A_AC3
Duration : 1h 28mn
Bit rate mode : Constant
Bit rate : 640 Kbps
Channel(s) : 6 channels
Channel positions : Front: L C R, Side: L R, LFE
Sampling rate : 48.0 KHz
Bit depth : 16 bits
Compression mode : Lossy
Stream size : 403 MiB (5%)
Title : Original
Language : English
Default : No
Forced : No
Text
ID : 4
Format : UTF-8
Codec ID : S_TEXT/UTF8
Codec ID/Info : UTF-8 Plain Text
Title : Полные (made by Ash61)
Language : Russian
Default : No
Forced : No
Menu
00:00:00.000 : :1
00:13:07.370 : :2
00:16:27.195 : :3
00:26:27.419 : :4
00:33:50.695 : :5
00:45:46.911 : :6
00:58:16.076 : :7
01:07:39.264 : :8
01:14:26.462 : :9
01:20:42.713 : :10

Для оценки качества 3д - Анимация

Благодарности релизеру (48)

Торрент:

Статус:

Размер:

Зарегистрирован   [ 2012-09-30 18:12 ]

проверено

8.65 GB

 
 Мнение о фильме (7)





ИМХО - главное достоинство этого фильма - познавательность!
 

ничо так
 

смотрел на Samsung UE40ES6727 - все ОК !
спасибо раздающему ash61
 

спасибо!!!
 

Фильм хороший, обхват широчайший, выделены ключевые моменты в историй. Хотелось бы продолжения, хотя бы до 3000 года)), или если бы посмотреть как и когда закончится эра человека и что будет после.
 

Ожидал чего-то такого, но не особо впечатлило.. всё скомкано, действительно важные моменты отсутствуют, зато по 10 раз показывают америку с её мостом.. в общем для школьников пойдёт, а так средне.
 

Нормальный фильм, смотрели вместе с ребенком, вполне прокатил