Торренты   
 
 

 

Замбезия / Zambezia (Уэйн Тонли) [2012 г., BDRip 1080p, Full OverUnder]

Рейтинг 3D:
35 голосов
8.0
Рейтинг фильма:
34 голосов
7.3
 
Вы должны быть авторизированы,
чтобы ставить оценки


Замбезия / Zambezia
Год выпуска: 2012
Страна: ЮАР
Жанр: мультфильм, комедия, приключения, семейный
Продолжительность: 01:22
Перевод: Профессиональный (полное дублирование)
Режиссер: Уэйн Тонли
В ролях: Эбигейл Бреслин, Кори Бертон, Джим Каммингс, Норин ДеВулф, Ли Дуру, Джефф Голдблюм, Ричард Э. Грант, Таня Гунади, Сэмюэл Л. Джексон, Том Кенни
Описание: В мультфильме рассказывается история жизни юного соколёнка по имени Кай, его приключения, характер, комичные ситуации в которые он попадает на пути к своей главной цели, на пути к заветному птичьему городку Замбезия, в котором он от всей души желает отыскать новых друзей, которые бы скрасили его одиночество и не оставили в беде. Однако для начала ему необходимо преодолеть путь, который полон опасностей и неожиданных поворотов.
Формат 3D: OverUnder
Видео: AVC, High@L5.0, 1920x2080, 23.976 fps, 12,9 Мбит/сек
Аудио: Rus, DTS, 6 каналов, 755 Кбит/сек, 48,0 КГц
Аудио: Eng, DTS, 6 каналов, 755 Кбит/сек, 48,0 КГц

Скриншоты




Анаглиф




MediaInfo

Общее
Формат : Matroska
Версия формата : Version 2
Размер файла : 8,48 Гбайт
Продолжительность : 1 ч. 22 м.
Общий поток : 14,7 Мбит/сек
Название фильма : Rip by Dag13
Дата кодирования : UTC 2012-10-02 17:55:36
Программа кодирования : mkvmerge v3.4.0 ('Rapunzel') сборка от May 15 2010 09:38:20
Библиотека кодирования : libebml v0.8.0 + libmatroska v0.9.0
Видео
Идентификатор : 1
Формат : AVC
Формат/Информация : Advanced Video Codec
Профиль формата : High@L5.0
Параметр CABAC формата : Да
Параметр ReFrames формата : 4 кадра
Идентификатор кодека : V_MPEG4/ISO/AVC
Продолжительность : 1 ч. 22 м.
Битрейт : 12,9 Мбит/сек
Ширина : 1920 пикселей
Высота : 2080 пикселей
Соотношение сторон : 0,923
Режим частоты кадров : Постоянный
Частота кадров : 23,976 кадра/сек
Цветовое пространство : YUV
Субдискретизация насыщенности : 4:2:0
Битовая глубина : 8 бит
Тип развёртки : Прогрессивная
Бит/(Пиксели*Кадры) : 0.135
Размер потока : 7,44 Гбайт (88%)
Библиотека кодирования : x264 core 120 r2145 748fe16
Настройки программы : cabac=1 / ref=4 / deblock=1:-2:-2 / analyse=0x3:0x113 / me=umh / subme=9 / psy=1 / psy_rd=1.00:0.00 / mixed_ref=1 / me_range=16 / chroma_me=1 / trellis=1 / 8x8dct=1 / cqm=0 / deadzone=21,11 / fast_pskip=1 / chroma_qp_offset=-2 / threads=9 / sliced_threads=0 / nr=0 / decimate=1 / interlaced=0 / bluray_compat=0 / constrained_intra=0 / bframes=6 / b_pyramid=0 / b_adapt=2 / b_bias=0 / direct=3 / weightb=1 / open_gop=0 / weightp=2 / keyint=250 / keyint_min=23 / scenecut=40 / intra_refresh=0 / rc_lookahead=60 / rc=crf / mbtree=1 / crf=18.0 / qcomp=0.60 / qpmin=0 / qpmax=69 / qpstep=4 / ip_ratio=1.40 / aq=1:1.00
Язык : English
Default : Нет
Forced : Нет
Аудио #1
Идентификатор : 2
Формат : DTS
Формат/Информация : Digital Theater Systems
Идентификатор кодека : A_DTS
Продолжительность : 1 ч. 22 м.
Вид битрейта : Постоянный
Битрейт : 755 Кбит/сек
Каналы : 6 каналов
Расположение каналов : Front: L C R, Side: L R, LFE
Частота : 48,0 КГц
Битовая глубина : 16 бит
Метод сжатия : С потерями
Размер потока : 445 Мбайт (5%)
Язык : Russian
Default : Да
Forced : Нет
Аудио #2
Идентификатор : 3
Формат : DTS
Формат/Информация : Digital Theater Systems
Идентификатор кодека : A_DTS
Продолжительность : 1 ч. 22 м.
Вид битрейта : Постоянный
Битрейт : 755 Кбит/сек
Каналы : 6 каналов
Расположение каналов : Front: L C R, Side: L R, LFE
Частота : 48,0 КГц
Битовая глубина : 16 бит
Метод сжатия : С потерями
Размер потока : 445 Мбайт (5%)
Язык : English
Default : Нет
Forced : Нет
На встроенных ТВ-плейерах показывать НЕ будет!!!
Остальные раздачи этого фильма (2)
Благодарности релизеру (11)

Торрент:

Статус:

Размер:

Зарегистрирован   [ 2012-10-02 22:18 ]

проверено

8.48 GB

 
 Мнение о фильме (12)





Спасибо,красивый мульт!!!
 

Вылетов нет. Глубина средненькая, терпимо.
 

Выкинь свое железо. Тут отличная глубина. Вылеты есть небольшие.
 

а мне 3D понравилось в мульте, довольно качественно сделано, вылеты присутствуют.
по сюжету детям должно понравиться, мульт красочный и интересный.
 

Плохо. Не вылетов, не разнообразия. Птицы, птицы, птицы... быстро надоели.
 

моей дочке понравилось. спасибо большое. 3Д в норме
 

Всё супер- не надо ля-ля. Говорить не мешки разгружать.
 

Мульт красочный с хорошим качеством 3Д. Сюжет тоже неплохой. Средняя оценка между отлично и хорошо. Спасибо!
 

Спасибо.Мультик понравился....И немножко о 3Д с вылетами...Если будут писать сценарии под 3Д с вылетами постоянными,то к хорошему ничего не приведёт.
 

Классный мульт.хорошее 3D
 

Отличный мультик
 

Классный мульт