Торренты   
 
 

 

Замбезия / Zambezia [2012 г., BDrip, Anamorph OverUnder]

Рейтинг 3D:
35 голосов
8.0
Рейтинг фильма:
34 голосов
7.3
 
Вы должны быть авторизированы,
чтобы ставить оценки



Замбезия / Zambezia
«Это где-то между Мадагаскаром и Рио»

Год выпуска: 2012
Страна: ЮАР (120dB Films, Cinema Management Group и др.)
Жанр: мультфильм, комедия, приключения
Продолжительность: 01:22:21
Перевод: Профессиональный (дублированный)
Русские субтитры: есть
Режиссер: Уэйн Тонли
Сценарий: Камилла Бубна-Кастелис, Эндрю Кук, Раффаелла Делле Донне
Продюсер: Клер Бекер, Ванесса Синден, Грег Бекер
Композитор: Брюс Ретиф
Художник: Аллан Камерон
Монтаж: Люк МакКей, Мишель Смит, Пол Спайрс
Роли озвучивали:
Эбигейл Бреслин (Zoe), Кори Бертон (Neville), Джим Каммингс (Budzo), Норин ДеВулф (Pavi), Ли Дуру (Nurse Bird), Джефф Голдблюм (Ajax), Ричард Э. Грант (Cecil), Таня Гунади (Tini), Сэмюэл Л. Джексон (Tendai), Том Кенни (Marabous) и др.
Роли дублировали:
Вероника Саркисова (Zoe), Даниил Эльдаров (Neville), Федор Добронравов, Анна Ардова, Сергей Чихачев (Tendai), Эвелина Блёданс и др.
Описание:
В мультфильме рассказывается история жизни юного соколёнка по имени Кай, его приключения, характер, комичные ситуации в которые он попадает на пути к своей главной цели, на пути к заветному птичьему городку Замбезия, в котором он от всей души желает отыскать новых друзей, которые бы скрасили его одиночество и не оставили в беде. Однако для начала ему необходимо преодолеть путь, который полон опасностей и неожиданных поворотов.
--Релиз группы:

За исходник спасибо:

Премьера: 5 июня 2012 (23 августа 2012)
Релиз на Blu-Ray: 25 сентября 2012, «Lizard Cinema Trade»



Проверено на встроенном плейере ТВ LG 42LW4500
--
Качество: BDrip
Контейнер: MKV
Формат 3D: Anamorph OverUnder / Вертикальная анаморфная стереопара
Порядок ракурсов: левый ракурс первый
Видео кодек: x264
Аудио кодек: AC3
Видео: AVC / 23,976 fps / 1920х1080p / 9755 Kbps
Аудио:
Русский / AC3 / 48 KHz / 5.1 ch / 640 Kbps
Английский / AC3 / 48 KHz / 5.1 ch / 640 Kbps
Субтитры: Русские, внешние (SRT) (отдельно)

MediaInfo

Код:
Общее
Уникальный идентификатор                 : 232998368988578686367134695069485461871 (0xAF49DA8467D4E292A174C80824C9716F)
Полное имя                               : D:\3D-RuGroup\Мультфильмы\Zambezia.3D.2012.BD3DRip.Half.OU.x264.AC3.3D-RuGroup.mkv
Формат                                   : Matroska
Версия формата                           : Version 2
Размер файла                             : 6,48 Гбайт
Продолжительность                        : 1 ч. 22 м.
Общий поток                              : 11,3 Мбит/сек
Название фильма                          : Zambezia release by 3D-RuGroup rip by StarStranger
Дата кодирования                         : UTC 2012-10-03 13:31:34
Программа кодирования                    : mkvmerge v3.4.0 ('Rapunzel') сборка от May 15 2010 09:38:20
Библиотека кодирования                   : libebml v0.8.0 + libmatroska v0.9.0
Видео
Идентификатор                            : 1
Формат                                   : AVC
Формат/Информация                        : Advanced Video Codec
Профиль формата                          : High@L4.1
Параметр CABAC формата                   : Да
Параметр ReFrames формата                : 4 кадра
Идентификатор кодека                     : V_MPEG4/ISO/AVC
Продолжительность                        : 1 ч. 22 м.
Битрейт                                  : 9755 Кбит/сек
Ширина                                   : 1920 пикселей
Высота                                   : 1080 пикселей
Соотношение сторон                       : 16:9
Частота кадров                           : 23,976 кадра/сек
Цветовое пространство                    : YUV
Субдискретизация насыщенности            : 4:2:0
Битовая глубина                          : 8 бит
Тип развёртки                            : Прогрессивная
Бит/(Пиксели*Кадры)                      : 0.196
Размер потока                            : 5,62 Гбайт (87%)
Библиотека кодирования                   : x264 core 125 r2200 999b753
Настройки программы                      : cabac=1 / ref=4 / deblock=1:-3:-3 / analyse=0x3:0x133 / me=umh / subme=9 / psy=1 / psy_rd=1.05:0.15 / mixed_ref=1 / me_range=32 / chroma_me=1 / trellis=2 / 8x8dct=1 / cqm=0 / deadzone=21,11 / fast_pskip=0 / chroma_qp_offset=-3 / threads=3 / lookahead_threads=1 / sliced_threads=0 / nr=0 / decimate=1 / interlaced=0 / bluray_compat=0 / constrained_intra=0 / bframes=7 / b_pyramid=2 / b_adapt=2 / b_bias=0 / direct=3 / weightb=1 / open_gop=0 / weightp=2 / keyint=250 / keyint_min=23 / scenecut=40 / intra_refresh=0 / rc_lookahead=60 / rc=crf / mbtree=1 / crf=18.0 / qcomp=0.90 / qpmin=0 / qpmax=69 / qpstep=4 / vbv_maxrate=50000 / vbv_bufsize=50000 / crf_max=0.0 / nal_hrd=none / ip_ratio=1.40 / aq=1:0.90
Default                                  : Да
Forced                                   : Нет
Аудио #1
Идентификатор                            : 2
Формат                                   : AC-3
Формат/Информация                        : Audio Coding 3
Расширение режима                        : CM (complete main)
Идентификатор кодека                     : A_AC3
Продолжительность                        : 1 ч. 22 м.
Вид битрейта                             : Постоянный
Битрейт                                  : 640 Кбит/сек
Каналы                                   : 6 каналов
Расположение каналов                     : Front: L C R, Side: L R, LFE
Частота                                  : 48,0 КГц
Битовая глубина                          : 16 бит
Метод сжатия                             : С потерями
Размер потока                            : 377 Мбайт (6%)
Заголовок                                : Dub
Язык                                     : Russian
Default                                  : Да
Forced                                   : Нет
Аудио #2
Идентификатор                            : 3
Формат                                   : AC-3
Формат/Информация                        : Audio Coding 3
Расширение режима                        : CM (complete main)
Идентификатор кодека                     : A_AC3
Продолжительность                        : 1 ч. 22 м.
Вид битрейта                             : Постоянный
Битрейт                                  : 640 Кбит/сек
Каналы                                   : 6 каналов
Расположение каналов                     : Front: L C R, Side: L R, LFE
Частота                                  : 48,0 КГц
Битовая глубина                          : 16 бит
Метод сжатия                             : С потерями
Размер потока                            : 377 Мбайт (6%)
Заголовок                                : Original
Язык                                     : English
Default                                  : Нет
Forced                                   : Нет
Меню
00:00:00.000                             : :01
00:04:46.495                             : :02
00:08:27.257                             : :03
00:12:58.486                             : :04
00:18:24.562                             : :05
00:25:37.536                             : :06
00:30:46.762                             : :07
00:38:11.247                             : :08
00:43:55.383                             : :09
00:46:52.393                             : :10
00:50:51.757                             : :11
00:55:05.385                             : :12
01:00:01.431                             : :13
01:06:04.836                             : :14
01:12:11.410                             : :15
01:16:37.218                             : :16

Скриншоты

Остальные раздачи этого фильма (2)
Благодарности релизеру (44)

Торрент:

Статус:

Размер:

Зарегистрирован   [ 2012-10-03 18:13 ]

проверено

6.48 GB

 
 Мнение о фильме (12)





Спасибо,красивый мульт!!!
 

Вылетов нет. Глубина средненькая, терпимо.
 

Выкинь свое железо. Тут отличная глубина. Вылеты есть небольшие.
 

а мне 3D понравилось в мульте, довольно качественно сделано, вылеты присутствуют.
по сюжету детям должно понравиться, мульт красочный и интересный.
 

Плохо. Не вылетов, не разнообразия. Птицы, птицы, птицы... быстро надоели.
 

моей дочке понравилось. спасибо большое. 3Д в норме
 

Всё супер- не надо ля-ля. Говорить не мешки разгружать.
 

Мульт красочный с хорошим качеством 3Д. Сюжет тоже неплохой. Средняя оценка между отлично и хорошо. Спасибо!
 

Спасибо.Мультик понравился....И немножко о 3Д с вылетами...Если будут писать сценарии под 3Д с вылетами постоянными,то к хорошему ничего не приведёт.
 

Классный мульт.хорошее 3D
 

Отличный мультик
 

Классный мульт