Торренты   
 
 

 

Прометей / Prometheus (Ридли Скотт) [2012 г., HDRip, Crop, Anamorph OverUnder]

Рейтинг 3D:
349 голосов
7.1
Рейтинг фильма:
365 голосов
7.7
 
Вы должны быть авторизированы,
чтобы ставить оценки


Прометей / Prometheus
Год выпуска: 2012
Страна: США, Великобритания
Жанр: Фантастика, Триллер
Продолжительность: 02:03:45
Перевод: Профессиональный (полное дублирование)
Режиссер: Ридли Скотт
В ролях: Нуми Рапас, Майкл Фассбендер, Шарлиз Терон, Идрис Эльба, Гай Пирс, Логан Маршалл-Грин, Шон Харрис
Семпл: http://narod.ru/disk/62048605001.47600bd500d19df8ad...d/Sempl.mkv.html
Описание: В поисках сакрального знания группа ученых отправляется в самые темные и неизведанные чертоги вселенной. Именно там, в отдаленных мирах, находясь на пределе своих умственных и физических возможностей, им предстоит вступить в безжалостную схватку за будущее всего человечества ...
Внимание: Данный релиз экспериментальный. Справа и слева у видеоряда обрезано по 248р, что дает возможность просмотра на полный экран (без черных полос) на телевизорах с соотношением сторон 16:9 без изменения пропорций. Интересует мнение наших пользователей, нужны ли рипы такого формата.
Более подробная информация
Качество: HDRip
Исходник: http://torrents3d.ru/viewtopic.php?t=3233
Формат 3D: OverUnder
Видео: AVC, High@L4.0, 1920x1080, 23.976 fps, 8332 Кбит/сек
Аудио: Rus, AC-3, 6 каналов, 640 Кбит/сек, 48,0 КГц
Аудио: Eng, AC-3, 6 каналов, 640 Кбит/сек, 48,0 КГц
Аудио: Ukr, AC-3, 6 каналов, 448 Кбит/сек, 48,0 КГц

Скриншоты




MediaInfo

Общее
Уникальный идентификатор : 201477362215829151913979642018173160275 (0x979320E56D09CA87B2C1BCC1A5460B53)
Полное имя : E:\STEREO CROP\Prometheus_ 540p_(CROP).mkv
Формат : Matroska
Версия формата : Version 2
Размер файла : 8,87 Гбайт
Продолжительность : 2 ч. 3 м.
Общий поток : 10,3 Мбит/сек
Название фильма : Rip by Dag13
Дата кодирования : UTC 2012-10-05 07:37:15
Программа кодирования : mkvmerge v3.4.0 ('Rapunzel') сборка от May 15 2010 09:38:20
Библиотека кодирования : libebml v0.8.0 + libmatroska v0.9.0
Видео
Идентификатор : 1
Формат : AVC
Формат/Информация : Advanced Video Codec
Профиль формата : High@L4.0
Параметр CABAC формата : Да
Параметр ReFrames формата : 4 кадра
Идентификатор кодека : V_MPEG4/ISO/AVC
Продолжительность : 2 ч. 3 м.
Битрейт : 8332 Кбит/сек
Ширина : 1920 пикселей
Высота : 1080 пикселей
Соотношение сторон : 16:9
Режим частоты кадров : Постоянный
Частота кадров : 23,976 кадра/сек
Цветовое пространство : YUV
Субдискретизация насыщенности : 4:2:0
Битовая глубина : 8 бит
Тип развёртки : Прогрессивная
Бит/(Пиксели*Кадры) : 0.168
Размер потока : 7,20 Гбайт (81%)
Библиотека кодирования : x264 core 120 r2145 748fe16
Настройки программы : cabac=1 / ref=4 / deblock=1:-3:-2 / analyse=0x3:0x113 / me=umh / subme=9 / psy=1 / psy_rd=1.00:0.00 / mixed_ref=1 / me_range=16 / chroma_me=1 / trellis=1 / 8x8dct=1 / cqm=0 / deadzone=21,11 / fast_pskip=1 / chroma_qp_offset=-2 / threads=9 / sliced_threads=0 / nr=0 / decimate=1 / interlaced=0 / bluray_compat=0 / constrained_intra=0 / bframes=6 / b_pyramid=0 / b_adapt=2 / b_bias=0 / direct=3 / weightb=1 / open_gop=0 / weightp=2 / keyint=250 / keyint_min=23 / scenecut=40 / intra_refresh=0 / rc_lookahead=60 / rc=crf / mbtree=1 / crf=18.0 / qcomp=0.60 / qpmin=0 / qpmax=69 / qpstep=4 / ip_ratio=1.40 / aq=1:1.00
Язык : English
Default : Нет
Forced : Нет
Аудио #1
Идентификатор : 2
Формат : AC-3
Формат/Информация : Audio Coding 3
Расширение режима : CM (complete main)
Параметр Endianness формата : Big
Идентификатор кодека : A_AC3
Продолжительность : 2 ч. 3 м.
Вид битрейта : Постоянный
Битрейт : 640 Кбит/сек
Каналы : 6 каналов
Расположение каналов : Front: L C R, Side: L R, LFE
Частота : 48,0 КГц
Битовая глубина : 16 бит
Метод сжатия : С потерями
Размер потока : 567 Мбайт (6%)
Язык : Russian
Default : Да
Forced : Нет
Аудио #2
Идентификатор : 3
Формат : AC-3
Формат/Информация : Audio Coding 3
Расширение режима : CM (complete main)
Параметр Endianness формата : Big
Идентификатор кодека : A_AC3
Продолжительность : 2 ч. 3 м.
Вид битрейта : Постоянный
Битрейт : 640 Кбит/сек
Каналы : 6 каналов
Расположение каналов : Front: L C R, Side: L R, LFE
Частота : 48,0 КГц
Битовая глубина : 16 бит
Метод сжатия : С потерями
Размер потока : 567 Мбайт (6%)
Язык : English
Default : Нет
Forced : Нет
Аудио #3
Идентификатор : 4
Формат : AC-3
Формат/Информация : Audio Coding 3
Расширение режима : CM (complete main)
Параметр Endianness формата : Big
Идентификатор кодека : A_AC3
Продолжительность : 2 ч. 3 м.
Вид битрейта : Постоянный
Битрейт : 448 Кбит/сек
Каналы : 6 каналов
Расположение каналов : Front: L C R, Side: L R, LFE
Частота : 48,0 КГц
Битовая глубина : 16 бит
Метод сжатия : С потерями
Размер потока : 397 Мбайт (4%)
Язык : Ukrainian
Default : Нет
Forced : Нет
Это второй вариант экспериментальной раздачи с апскейлом( искусственным софтовым увеличением разрешения) до 1920х1080. Голосовалка в этой теме. http://torrents3d.ru/viewtopic.php?t=3237
Остальные раздачи этого фильма (7)
Благодарности релизеру (147)

Торрент:

Статус:

Размер:

Зарегистрирован   [ 2012-10-05 13:29 ]

проверено

8.87 GB

 
 Мнение о фильме (124)

1, 2, 3, 4, 5, 6, 7  След.






смотрел в кинотеатре,3D непонравилос,мелковатое,а вот сам филм неплоxои
 

Смотрел в кино. Шедевр, начиная с первых кадров. Красиво, серьезно, уйма идей, местами рвет шаблон.
Но чтобы поставить максимальную оценку мешает только тупость некоторых героев. Десяток лет назад это воспринималось в кино как норма, но сейчас несколько расстраивает. С одной стороны Ридли погрузился в философию и природу - что несомненно рост - но с другой стороны малость застрял в прошлом. Хотя, может быть, это дань уважения к жанру. В любом случае, этот тот случай, когда многое хочется простить.
Сильных для 3D сцен не помню, оно скорей дополняло фильм. Но очки снимать не хотелось. Много видов природы, голограмм, гениальные декораций - это особенно хорошо выглядит в объеме.
 

нормальный фильм
 

админ, Да,сам фильм по себе отличный,но на счет 3Д не могу соглоситца,ведиь Титаник тозе неснимался в 3Д но как полуцчилось,и я не про вылеты.Да бог сними.но по мне глубины нехвотает и даже очень,и ето не только моё мнение,я наблюдал за залом и видел, тоже самое,как лиуди снимают очки
 

kroom, Прометей снимался с самого начала в 3D, разве нет? Но вообще да, трудно вспомнить свои впечатления именно об объеме, вспоминаются впечатляющие виды, но наверное это скорей заслуга художников. Действительно, сменю ка оценку на 6.
 

Смотрел в кинотеатре Nescafe-IMAX 3D, на экране с 7-и этажный дом, сидел по центру, скажу сразу что изначально само 3D в этом фильме слабовато, вылетов почти небыло, глубина на 6 из 10, а сам фильм мне понравился, но только как-то его скомкали, можно было и побольше сцен сделать, жду режиссёрской версии.
 

Фильм не о чем!
 

Фильм понравился. Такое надо любить и уметь понимать. Иначе будет как сказала моя бывшая "промотала - хрень какая-то и выключила". Хотелось бы режисерскую версию. Но она уж точно не выйдет в 3D.
Кстати 3D. Оно демонстрирует реалистичный объем, напоминая IMAX'овские документалки. Где-то объем величественен, а где-то скромен - всё как в реальной жизни. Вылеты? Вылетов нет в принципе! Мы ж не Шаркбоя и Лаву смотрим!
 

Поддержу tnrprog и admin.
Смотрел в кино. Шедевр, начиная с первых кадров. Красиво, серьезно, уйма идей, местами рвет шаблон.
За последние несколько лет не смотрел такой серьезной фантастики.
Такое надо любить и уметь понимать.
И если ты не любитель "твердой" сай-фай, тогда этот фильм не для тебя.
Пересмотрите лучше Трансформеров 3Д .
Что касается 3Д:
ребята забудьте о вылетах в художественных фильмах!
Либо снимаешь фильм с идеей и получаешь, шедевр типа Прометей с хорошим обьемом, либо затачиваешь сюжет под 3Д и получаешь Сумаcшедшую Езду с максимумом вылетов (хотя я против нее ничего не имею, хорошее кино класса В).
 

а мне фильм не понравился, смотрел в кинотеатре 3Д, наверное ожидал большего, складывалось ощущение, что декорации из резины сделали (типа как в Гайвере, если кто помнит)
 

TheJoker, мысли разделяю. Лучше вторую часть коммента, про раздачу, разместить отдельно в комменты о раздаче. Дело в том, что комменты отсюда будут видны во всех будущих раздачах Прометея - они объединяются у разных раздач одного фильма.
 

Фильм просто шикарный. Уже 2 раза смотрел. Если бы в Блю рей качнул бы.
 

ДА нормальный фильм!Релизеру спасибо!:)
 

Концовка после титров интересная ) Вот откуда появились Чужие :-)
 

Отличный фильм!То что предистория "Чужих" стало понятно сразу,как только показали оторванную голову в шлеме,а потом голографическую форму корабля под землёй!В "Чужом" как раз есть момент,когда обнаружили огромное тело в таком же скафандре за пультом с пробитой грудной клеткой. "Чужой" и "Чужие" это шедевр,пожалуй самый мой любимый фильм.Жаль,что 3D в то время не было!Так что поддерживаю ,что фильм отменный!
 

Фильм хороший. Спасибо.
 

3D в фильме ерундовое лучше смотреть как простой фильм.
 

5strannik,
3D в фильме ерундовое
А что в вашем понятии "3D - хорошее"? Я без издевки. Просто интересно. В моем понимании фильм снят в настоящем 3D, это заметно - значит всё хорошо. Не отлично, как в Аватаре или мультиках, однако хорошо.
 

Сколько читаю коменты и все больше убеждаюсь что половина 3д оценивает по реалистичности(аквариум) а вторая половина по вылетам!!!К стати в Аватаре тоже вылеты есть но это только присмотрется надо!Например сцена с семенами священного дерева в самой первой сцене!
 

Фильм нормальный, хотя смотрел в 2D,т.к был не в форме(ал) сейчас делаю Рип для свой коллэкшн HSBS
 

Страница 1 из 7

1, 2, 3, 4, 5, 6, 7  След.