Торренты   
 
 


Азорские острова. Акулы, киты, манты / Azores 3D: Sharks, Whales, Manta Rays (Норберт Ванден) [2011 г., Anamorph SideBySide]

Рейтинг 3D:
Пока никто не голосовал
Рейтинг фильма:
Пока никто не голосовал
 
Вы должны быть авторизированы,
чтобы ставить оценки


Азорские острова. Акулы, киты, манты / Azores 3D: Sharks, Whales, Manta Rays
Год выпуска: 2011
Страна: Германия
Жанр: Документальный, научно-познавательный, видовой, природа, биология, океанография
Продолжительность: 00:52:26
Перевод: Профессиональный (полное дублирование)
Режиссер: Норберт Ванден
Описание: Азорские острова - подводный рай, объект мирового наследия, место наблюдения под водой за китами и скатами. В тоже время Азорские острова предоставляют морским существам единственное место для отдыха на их пути в океан. В некотором смысле это фаст-фуд на их пути между Европой и Америкой. Акулы, скаты, дельфины и косяки сардин населяют воды архипелага. На данный момент на Азорских островах можно наблюдать тридцать восемь видов китов. Азоры - это настоящий рай для любителей дайвинга и последний нетронутый уголок Европы.
Формат 3D: Anamorph SideBySide
Порядок ракурсов: Параллельная пара
Видео: MPEG-4 AVC, 11.8 Мбит/с, 1920x1080, 23.976 кадр/с
Аудио: Русский (AC3, 6 ch, 640 Кбит/с),(DTS, 6 ch, 1510 Кбит/с), английский (DTS, 6 ch, 1510 Кбит/с)

Скриншоты


Медиа Инфо

General
Unique ID : 176135617461384703561612545486964595617 (0x84827C6A1DB1F4D9A934DDE9B2CF1BA1)
Complete name : M:\Кино3Д\Azorskie.ostrova.chast.1.Kiti.Akuli.Manti.3D.2011.x264.BDRip.1080p.Kinozal.TV.mkv
Format : Matroska
Format version : Version 2
File size : 5.79 GiB
Duration : 52mn 25s
Overall bit rate : 15.8 Mbps
Movie name : 3DRip-by-Kinozal.TV
Encoded date : UTC 2012-10-05 13:08:11
Writing application : mkvmerge v3.4.0 ('Rapunzel') сборка от May 15 2010 09:38:20
Writing library : libebml v0.8.0 + libmatroska v0.9.0
Video
ID : 1
Format : AVC
Format/Info : Advanced Video Codec
Format profile : High@L4.1
Format settings, CABAC : Yes
Format settings, ReFrames : 4 frames
Codec ID : V_MPEG4/ISO/AVC
Duration : 52mn 25s
Bit rate : 11.8 Mbps
Width : 1 920 pixels
Height : 1 080 pixels
Display aspect ratio : 16:9
Frame rate : 23.976 fps
Color space : YUV
Chroma subsampling : 4:2:0
Bit depth : 8 bits
Scan type : Progressive
Bits/(Pixel*Frame) : 0.238
Stream size : 4.33 GiB (75%)
Title : 3DRip-by-Kinozal.TV
Writing library : x264 core
Default : Yes
Forced : No
Color primaries : BT.709-5, BT.1361, IEC 61966-2-4, SMPTE RP177
Transfer characteristics : BT.709-5, BT.1361
Matrix coefficients : BT.709-5, BT.1361, IEC 61966-2-4 709, SMPTE RP177
Audio #1
ID : 2
Format : AC-3
Format/Info : Audio Coding 3
Mode extension : CM (complete main)
Format settings, Endianness : Big
Codec ID : A_AC3
Duration : 52mn 25s
Bit rate mode : Constant
Bit rate : 640 Kbps
Channel(s) : 6 channels
Channel positions : Front: L C R, Side: L R, LFE
Sampling rate : 48.0 KHz
Bit depth : 16 bits
Compression mode : Lossy
Stream size : 240 MiB (4%)
Title : 3DRip-by-Kinozal.TV
Language : Russian
Default : Yes
Forced : No
Audio #2
ID : 3
Format : DTS
Format/Info : Digital Theater Systems
Codec ID : A_DTS
Duration : 52mn 25s
Bit rate mode : Constant
Bit rate : 1 510 Kbps
Channel(s) : 6 channels
Channel positions : Front: L C R, Side: L R, LFE
Sampling rate : 48.0 KHz
Bit depth : 24 bits
Compression mode : Lossy
Stream size : 566 MiB (10%)
Title : 3DRip-by-Kinozal.TV
Language : Russian
Default : No
Forced : No
Audio #3
ID : 4
Format : DTS
Format/Info : Digital Theater Systems
Codec ID : A_DTS
Duration : 52mn 25s
Bit rate mode : Constant
Bit rate : 1 510 Kbps
Channel(s) : 6 channels
Channel positions : Front: L C R, Side: L R, LFE
Sampling rate : 48.0 KHz
Bit depth : 24 bits
Compression mode : Lossy
Stream size : 566 MiB (10%)
Title : 3DRip-by-Kinozal.TV
Language : English
Default : No
Forced : No
Menu
00:00:00.000 : en:(01)00:00:00:000
00:10:01.559 : en:(02)00:10:01:559
00:20:02.034 : en:(03)00:20:02:034
00:30:02.634 : en:(04)00:30:02:634
00:40:45.109 : en:(05)00:40:45:109
00:51:30.128 : en:(06)00:51:30:128
00:52:26.184 : en:(07)00:52:26:184
Благодарности релизеру (7)

Торрент:

Статус:

Размер:

Зарегистрирован   [ 2012-10-05 20:47 ]

* не проверено

5.79 GB