Торренты   
 
 

 

Лунный свет 2: Вселенная света / Lichtmond 2: Universe of Light 3D (Джорджио Коппехели, Мартин Коппехели) [2012 г., Anamorph OverUnder]

Рейтинг 3D:
167 голосов
8.7
Рейтинг фильма:
163 голосов
8.3
 
Вы должны быть авторизированы,
чтобы ставить оценки


Лунный свет 2: Вселенная света / Lichtmond 2: Universe of Light 3D
Год выпуска: 2012
Страна: Германия
Жанр: Документальный, научно-познавательный
Продолжительность: 00:53:09
Перевод: Не требуется
Режиссер: Джорджио Коппехели, Мартин Коппехели
Описание: Второй мультимедийный порект "Lichtmond" - Universe of Light (Вселенная света) подготовлен совместно с музыкальной легендой Alan Parsons. Мировая премьера состоялась в Гамбургском Планетарии в сентябре 2012 года - уникальное 360° шоу всех времен и народов. "Выше, быстрее, шире и все в XXL" - путешествие в фэнтези, в лучах лунного света через волшебные звуки, еще более масштабно и профессионально чем в первом фильме. Погрузитесь в неординарную музыку и пусть ваши FullHD экраны превратятся на один час в двери сказочных миров, которые до селе Вам не приходилось видеть, но наверняка вы мечтали о них.
Формат 3D: Anamorph OverUnder
Видео: MPEG-4 AVC, 10.9 Мбит/с, 1920x1080, 23.976 кадр/с
Аудио: Музыка (AC3, 6 ch, 640 Кбит/с), (DTS, 6 ch, 1510 Кбит/с)

Скриншоты


Инфо файл

General
Unique ID : 229192432780953608175545080042903911094 (0xAC6CDB5FE4EBD3649044C4749DCD3AB6)
Complete name : M:\Кино3Д\Lunnyj.svet.3D.2012.x264.BDRip.1080p.kinozal.tv.mkv
Format : Matroska
Format version : Version 2
File size : 4.93 GiB
Duration : 53mn 3s
Overall bit rate : 13.3 Mbps
Movie name : 3DRip-by-kinozal.tv
Encoded date : UTC 2012-10-05 13:47:15
Writing application : mkvmerge v3.4.0 ('Rapunzel') сборка от May 15 2010 09:38:20
Writing library : libebml v0.8.0 + libmatroska v0.9.0
Video
ID : 1
Format : AVC
Format/Info : Advanced Video Codec
Format profile : High@L4.1
Format settings, CABAC : Yes
Format settings, ReFrames : 4 frames
Codec ID : V_MPEG4/ISO/AVC
Duration : 53mn 3s
Bit rate : 10.9 Mbps
Width : 1 920 pixels
Height : 1 080 pixels
Display aspect ratio : 16:9
Frame rate : 23.976 fps
Color space : YUV
Chroma subsampling : 4:2:0
Bit depth : 8 bits
Scan type : Progressive
Bits/(Pixel*Frame) : 0.219
Stream size : 4.04 GiB (82%)
Title : 3DRip-by-kinozal.tv
Writing library : x264 core
Default : Yes
Forced : No
Color primaries : BT.709-5, BT.1361, IEC 61966-2-4, SMPTE RP177
Transfer characteristics : BT.709-5, BT.1361
Matrix coefficients : BT.709-5, BT.1361, IEC 61966-2-4 709, SMPTE RP177
Audio #1
ID : 2
Format : AC-3
Format/Info : Audio Coding 3
Mode extension : CM (complete main)
Format settings, Endianness : Big
Codec ID : A_AC3
Duration : 53mn 3s
Bit rate mode : Constant
Bit rate : 640 Kbps
Channel(s) : 2 channels
Channel positions : Front: L R
Sampling rate : 48.0 KHz
Bit depth : 16 bits
Compression mode : Lossy
Stream size : 243 MiB (5%)
Title : 3DRip-by-kinozal.tv
Default : Yes
Forced : No
Audio #2
ID : 3
Format : DTS
Format/Info : Digital Theater Systems
Codec ID : A_DTS
Duration : 53mn 3s
Bit rate mode : Constant
Bit rate : 1 510 Kbps
Channel(s) : 2 channels
Channel positions : Front: L R
Sampling rate : 48.0 KHz
Bit depth : 24 bits
Compression mode : Lossy
Stream size : 573 MiB (11%)
Title : 3DRip-by-kinozal.tv
Default : No
Forced : No
Menu
00:00:00.000 : en:(01)00:00:00:000
00:02:20.140 : en:(02)00:02:20:140
00:06:28.388 : en:(03)00:06:28:388
00:11:34.694 : en:(04)00:11:34:694
00:17:54.073 : en:(05)00:17:54:073
00:23:56.435 : en:(06)00:23:56:435
00:29:13.835 : en:(07)00:29:13:835
00:35:16.114 : en:(08)00:35:16:114
00:41:29.487 : en:(09)00:41:29:487
00:47:44.361 : en:(10)00:47:44:361
00:50:56.762 : en:(11)00:50:56:762
00:53:09.811 : en:(12)00:53:09:811
Благодарности релизеру (0)

Торрент:

Статус:

Размер:

Зарегистрирован   [ 2012-10-05 20:52 ]

D повтор

4.93 GB

 
Комментарии:

1, 2, 3, 4  След.






Даааа, 3D просто изумительно ( моя оценка 10 ) , прекрасная музыка . Приятно удивило, что вопреки предупреждениям Александра о гхостинге - его вообще небыло.Картинка идеальная, вот бы всё 3D в таком качестве... Огромное спасибо!
 

отлично
 
максимка2012 Профиль 08-Окт-2012 22:37

Подтверждаю - все отлично!
 

Спасибо за такую красоту!
 

Потрясающая вещь! Великолепная музыка, интересный видеоряд, качественное 3D!
 

Просто нет слов! Всё гармонично и музыка и видео,сплошной позитив. Огромное спасибо!
 

Слов нет! Просто всё офигенно. Спасибо огромное!
 

Прекрасный фильм.а еще лучше 3д. Огромное спасибо!
 

спасибо!!!!По-больше бы такого.Прикольно!
 

Восхитительно! Казалось бы: ну, что еще лучше можно сотворить?
Ведь Lichmond1 прекрасен, но совершенству нет предела, гений его
создателя беспределен. Это я о Lichmond2, т.ч., друзья,
времени не тратя даром...
Такие же слова в превосходной степени хочу сказать вам, ash61, за
великолепный праздник, праздник 3D отменного качества, даже с
предсказанным вами "гхостингом", праздник чарующей музыки
Dolby Digital 5.1, праздник, который хоть на некоторое время выдавит
нас из сероватых будней запрограммированных обязанностей и
унесет в волшебный мир грез. Спасибо вам, ash61.
P.S. Кстати, в этом прекрасном творении я наблюдал не только "вылеты",
что стали уже "притчей во языцех", но и завораживающие "влеты",
когда листики, шелестя по щекам, влетают в экран и уже там, внутри,
продолжают свой волшебный танец. Восхитительно!
 

Огромное спасибо!Такой завораживающей красоты я ещё не видел!3D просто СУПЕР!Музыка настолько прекрасна,что слов нет!Всё же не зря в музыкальном сопровождении принимал участие легендарный Alan Parson!Посмотрев этот шедевр я получил океан положительных эмоций!
 

VirusVampirus, меня тоже порадовало присутствие любимого мной Парсонса, но всё же главная заслуга - братьев Копехелле! Молодцы, новаторы!
 

огромное спасибо!!!!! 3д супер музыка завораживает. побольше бы такой красоты.
 

смотрел на Samsung UE40ES6727 – 3D все ОК !
спасибо раздающему ash61
 

это суперский RELAX !!!!!!!!!!! спасибо ash61 !!!!!!!!
 

Не понравилось, ни логики, ни философии. Смотреть стоит только из-за 3д. Не вдохновили и расслабили, а напугали - вездесущие орлы, зебры посреди пустыни.. Придумали женщин из листьев, фантазийные растения, причудливые механизмы и сооружения, а животных-то зачем земных пихнули? Если я и не поняла какого-то необходимого символизма, то авторы могли как-нибудь и стилизовать их под общий антураж миров.
 

Просто супер! Спасибо огромное!!!!!!!
 

К несчастью я засмотрел "Лунный свет 2" раньше, чем первый. Делюсь впечатлениями...
А кстати, почему в скриншотах нет самого главного - сцена номер 2 - рыбка выплывает за пределы монитора??????????????????? Авторы ссылок - исправьте нюанс пожалуйста!!!
Та это о чем это я? - ах да Лайтмонд два... юнивёрс оф лайт... Смотреть только Блю Рэй, только в 3Д, и только на (а вот сони бравию не смогу рекомендовать - двоится) правильном 3д мониторе- телевизоре... И хто знает кто спевати песенки "Соул Аффинити и Стэйт оф майн" ??? - Мира Фё... не похожа.. может быть "Суна" ???
 

Я еще не закончил.... Некая "Красотка" пишет не понравилось... или Дэцела смотри или я там не знаю... Промитей, Аватар, Алиса ин дэ андерволд от Тима Бёртона...
- Качство опу-пенное- музыка - ахре-не-тительная... впечатлений лет на 15... Круче не видел еще... а про природа.. погода.. Я похоже единственный, кто в 3д студии под Дос рисовал или по виндой в 3д студио максе... Читайте субтитры.. там все написано... чем и как они рисовали... Где там "Красотка" ? Скачай 3д макс и нарисуй нам всем пожалста ... как там написано? Фрактал моделл... Вы не поняли... это демонстрация 3д как по видео.. так и по 2.0, 5.1, 7.2 - звуку.... - все возможные эффекты... А не нравится - не смотрите.. зачем ругать такую классную вешь?!!!
 

Согласен с "красоткой", ожидалось нечто большее, заголовок обязывает (Вселенная света) впрочем, рыбка выплывающая на середину комнаты, исключительно порадовала. И что-то перемудрили с перспективой, она постоянно меняется из-за этого возникают контуры "двоения" (спец. термина не знаю). Смотрю с помощью тв "Samsung UE46D6530W". Музыка отлично! Спасибо за релиз.
 

Страница 1 из 4

1, 2, 3, 4  След.