Торренты   
 
 

 

Мадагаскар 3 / Madagascar 3: Europe's Most Wanted [2012 г., BDrip, Anamorph SideBySide]

Рейтинг 3D:
282 голосов
9.2
Рейтинг фильма:
277 голосов
8.6
 
Вы должны быть авторизированы,
чтобы ставить оценки



Мадагаскар 3 / Madagascar 3: Europe's Most Wanted
«The world is sick. And we are the doctors.»

Год выпуска: 2012
Страна: США (DreamWorks Animation, Pacific Data Images (PDI) и др.)
Жанр: мультфильм, комедия, приключения
Продолжительность: 01:33:23
Перевод: Профессиональный (дублированный)
Русские субтитры: нет
Режиссер: Эрик Дарнелл, Том МакГрат, Конрад Вернон
Сценарий: Эрик Дарнелл, Ноа Баумбах
Продюсер: Мирей Сория, Марк Свифт, Холли Эдвардс
Композитор: Ханс Циммер
Художник: Кендал Кронкхайт, Шеннон Джеффрис
Монтаж: Ник Флетчер
Роли озвучивали:
Бен Стиллер, Крис Рок, Дэвид Швиммер, Джада Пинкетт Смит, Саша Барон Коэн, Седрик «Развлекатель», Энди Рихтер, Фрэнсис МакДорманд, Брайан Крэнстон, Мартин Шорт и др.
Роли дублировали:
Константин Хабенский, Оскар Кучера, Александр Цекало, Маша Малиновская, Андрей Лёвин и др.
Описание:
Лев Алекс, зебра Марти, гиппопотамиха Глория и жираф Мелман, а также король Джулиан, Морис, Морт и Пингвины все еще пытаются вернуться в Нью-Йорк. На этот раз их путь пройдет через Европу, где они откроют свой цирк.

Знаете ли вы, что...


  • Когда капитан Шантель Дюбуа распечатывает информацию из своего поиска, персонаж за кадром говорит, что слышит, как начал работать лазерный принтер. Показывают струйный принтер, а звук, использованный для него, взят от матричного принтера.
  • В конце фильма, видно название судна противника — «Mal De Mer», что в переводе с французского означает «Морская болезнь».
  • Капитан Шантель Дюбуа поет для своих приспешников «Non, je ne regrette rien» в течение минуты. Это французская песня, получившая известность после того, как в 1960 году ее записала Эдит Пиаф. Пиаф посвятила запись этой песни французскому отряду иностранных волонтеров, которые до сих пор поют ее на парадах. В соответствии с реакцией мужчин на эту песню, предполагается, что все они служат или служили в этом отряде.

Техн. детали съёмки

  • Формат изображения: 1.85 : 1
  • Формат копии: 35 mm (spherical) (Kodak Vision 2383)
    D-Cinema (also 3-D version)
  • Формат съёмок: Digital
  • Изображение: цветное
Релиз группы:

Премьера: 18 мая 2012 (7 июня 2012)
Релиз на Blu-Ray: 16 октября 2012, «Новый Диск»



Проверено на встроенном плейере ТВ LG 42LW4500
--
Качество: BDrip (rip video by z-man mix by StarStranger)
Контейнер: MKV
Формат 3D: Anamorph SideBySide / Горизонтальная анаморфная стереопара
Порядок ракурсов: левый ракурс первый
Видео кодек: x264
Аудио кодек: AC3
Видео: AVC / 23,976 fps / 1920х1080p / 9611 Kbps
Аудио:
Русский / AC3 / 48 KHz / 5.1 ch / 640 Kbps
Украинский / AC3 / 48 KHz / 5.1 ch / 640 Kbps
Английский / AC3 / 48 KHz / 5.1 ch / 640 Kbps

MediaInfo

Код:
Общее
Уникальный идентификатор                 : 209908813731464602738981766423357270153 (0x9DEAF78D067046E5BAC635A5DF25A889)
Полное имя                               : G:\Source\Madagascar.3.Europe's.Most.Wanted.3D.2012.BD3DRip.Half.SBS.x264.AC3.Rus.Ukr.Eng.mkv
Формат                                   : Matroska
Версия формата                           : Version 2
Размер файла                             : 7,68 Гбайт
Продолжительность                        : 1 ч. 33 м.
Общий поток                              : 11,8 Мбит/сек
Название фильма                          : Madagascar 3 Europe's Most Wanted rip by z-man mix by StarStranger
Дата кодирования                         : UTC 2012-10-12 19:00:12
Программа кодирования                    : mkvmerge v3.4.0 ('Rapunzel') сборка от May 15 2010 09:38:20
Библиотека кодирования                   : libebml v0.8.0 + libmatroska v0.9.0
Видео
Идентификатор                            : 1
Формат                                   : AVC
Формат/Информация                        : Advanced Video Codec
Профиль формата                          : High@L4.1
MultiView_Count                          : 2
MultiView_Layout                         : Right Eye
Параметр CABAC формата                   : Да
Параметр ReFrames формата                : 4 кадра
Идентификатор кодека                     : V_MPEG4/ISO/AVC
Продолжительность                        : 1 ч. 33 м.
Битрейт                                  : 9611 Кбит/сек
Ширина                                   : 1920 пикселей
Высота                                   : 1080 пикселей
Соотношение сторон                       : 16:9
Частота кадров                           : 23,976 кадра/сек
Цветовое пространство                    : YUV
Субдискретизация насыщенности            : 4:2:0
Битовая глубина                          : 8 бит
Тип развёртки                            : Прогрессивная
Бит/(Пиксели*Кадры)                      : 0.193
Размер потока                            : 6,27 Гбайт (82%)
Заголовок                                : Madagascar 3 Europe's Most Wanted
Библиотека кодирования                   : x264 core 128 r2216 198a7ea
Настройки программы                      : cabac=1 / ref=4 / deblock=1:-3:-3 / analyse=0x3:0x113 / me=umh / subme=10 / psy=1 / psy_rd=1.00:0.15 / mixed_ref=1 / me_range=32 / chroma_me=1 / trellis=2 / 8x8dct=1 / cqm=0 / deadzone=21,11 / fast_pskip=1 / chroma_qp_offset=-3 / threads=18 / lookahead_threads=3 / sliced_threads=0 / nr=0 / decimate=1 / interlaced=0 / bluray_compat=0 / constrained_intra=0 / bframes=6 / b_pyramid=2 / b_adapt=1 / b_bias=0 / direct=3 / weightb=1 / open_gop=0 / weightp=2 / keyint=250 / keyint_min=23 / scenecut=40 / intra_refresh=0 / rc_lookahead=40 / rc=crf / mbtree=1 / crf=18.0 / qcomp=0.60 / qpmin=10 / qpmax=69 / qpstep=4 / vbv_maxrate=40000 / vbv_bufsize=30000 / crf_max=0.0 / nal_hrd=none / ip_ratio=1.40 / aq=1:1.00
Default                                  : Да
Forced                                   : Нет
Аудио #1
Идентификатор                            : 2
Формат                                   : AC-3
Формат/Информация                        : Audio Coding 3
Расширение режима                        : CM (complete main)
Идентификатор кодека                     : A_AC3
Продолжительность                        : 1 ч. 33 м.
Вид битрейта                             : Постоянный
Битрейт                                  : 640 Кбит/сек
Каналы                                   : 6 каналов
Расположение каналов                     : Front: L C R, Side: L R, LFE
Частота                                  : 48,0 КГц
Битовая глубина                          : 16 бит
Метод сжатия                             : С потерями
Размер потока                            : 428 Мбайт (5%)
Язык                                     : Russian
Default                                  : Да
Forced                                   : Нет
Аудио #2
Идентификатор                            : 3
Формат                                   : AC-3
Формат/Информация                        : Audio Coding 3
Расширение режима                        : CM (complete main)
Идентификатор кодека                     : A_AC3
Продолжительность                        : 1 ч. 33 м.
Вид битрейта                             : Постоянный
Битрейт                                  : 640 Кбит/сек
Каналы                                   : 6 каналов
Расположение каналов                     : Front: L C R, Side: L R, LFE
Частота                                  : 48,0 КГц
Битовая глубина                          : 16 бит
Метод сжатия                             : С потерями
Размер потока                            : 428 Мбайт (5%)
Язык                                     : Ukrainian
Default                                  : Нет
Forced                                   : Нет
Аудио #3
Идентификатор                            : 4
Формат                                   : AC-3
Формат/Информация                        : Audio Coding 3
Расширение режима                        : CM (complete main)
Идентификатор кодека                     : A_AC3
Продолжительность                        : 1 ч. 33 м.
Вид битрейта                             : Постоянный
Битрейт                                  : 640 Кбит/сек
Каналы                                   : 6 каналов
Расположение каналов                     : Front: L C R, Side: L R, LFE
Частота                                  : 48,0 КГц
Битовая глубина                          : 16 бит
Метод сжатия                             : С потерями
Размер потока                            : 428 Мбайт (5%)
Язык                                     : English
Default                                  : Нет
Forced                                   : Нет
Меню
00:00:00.000                             : en:00:00:00.000
00:05:16.316                             : en:00:05:16.316
00:10:51.985                             : en:00:10:51.985
00:19:46.310                             : en:00:19:46.310
00:27:49.835                             : en:00:27:49.835
00:32:50.552                             : en:00:32:50.552
00:40:34.974                             : en:00:40:34.974
00:46:51.976                             : en:00:46:51.976
00:52:00.534                             : en:00:52:00.534
00:58:55.157                             : en:00:58:55.157
01:00:23.411                             : en:01:00:23.411
01:04:19.314                             : en:01:04:19.314
01:10:59.672                             : en:01:10:59.672
01:15:30.317                             : en:01:15:30.317
01:21:09.782                             : en:01:21:09.782
01:22:48.630                             : en:01:22:48.630

Скриншоты

Остальные раздачи этого фильма (4)
Благодарности релизеру (67)

Торрент:

Статус:

Размер:

Зарегистрирован   [ 2012-10-12 23:21 ]

T временная

7.68 GB

 
 Мнение о фильме (46)

1, 2, 3  След.






Как качество? Как 3D?
3D - великолепное. Ставлю высший бал. Создатели воспользовались объемом очень умело, в отличии от Шреков.
Качество релиза на 4. Очень даже смотрибельное, но приправленное периодическими артефактами.
чистый звук с кинотеатра который записан из Line-in
И там внатуре 5.1?
 

О!!!!Да!!!Это как раз любителей вылетов!!!:)
 

вылеты присутствуют?
3D использовано очень эффективно. Большая глубина и довольно частые качественные вылеты есть напротяжение всего фильма.
 

Спасибо большое! Рекордсмен по вылетам из мультиков!
 

спасибо......просто блеск
 

Mультик прикольный.3Д ооочень порадовало, на 10-тку
 

Спасибо!!! сейчас посмотрим и оценим.
 

Мультик прикольный ,3D отличное , автору спасибо за труды !
 

Класный мульт.Класное 3D.Спасибо!!!
 

Класное 3D.Спасибо!!!
 

Смотрел c ребёнком в кино в 3D - 5 баллов! В коллекцию! Tридэ на отлично! Спасибо!
 

Эта лучшая часть Мадагаскара. Фразы из мультфильма могут стать народными. Скачал и включил проверить качество и не оторвался.
 

Все бы так! 3д супер.
 

Зебра с полетами супер!!!))))))
 

По 3Д супер, а мульту чегото нехватает)))
 

мульт ржачный качество 3D супер смотреть всем!!!
 

спасибо! отличный мульт и отличное 3д!
 

спасибо!!!!! 3д на все100. качать всем.
 

Эта часть лучше первых двух и 3Д на отлично.
 

Очень классный мульт, а 3D вообще суперское!!Всё очень красочно и ярко!Спасибо!)
 

Страница 1 из 3

1, 2, 3  След.