Торренты   
 
 

 

Пункт назначения 5 / Final Destination 5 (Стивен Куэйл) [2011 г., Crop, HDRip, Anamorph OverUnder]

Рейтинг 3D:
149 голосов
8.5
Рейтинг фильма:
144 голосов
7.9
 
Вы должны быть авторизированы,
чтобы ставить оценки


Пункт назначения 5 / Final Destination 5
Год выпуска: 2011
Страна: США
Жанр: ужасы, триллер
Продолжительность: 01:31:49
Перевод: Профессиональный (полное дублирование)
Режиссер: Стивен Куэйл
В ролях: Николас Д’Агосто, Эмма Белл, Майлз Фишер, Эллен Ро, Жаклин МакИннес Вуд, П.Дж. Бирн, Арлен Эскарпета, Дэвид Кокнер, Кортни Б. Вэнс, Тони Тодд
Описание: У Сэма Лоутона происходит жуткое видение: подвесной мост, на котором он находится со своими друзьями, рушится, и многие люди, включая его самого, погибают. Сэм начинает паниковать и уговаривает своих друзей и ещё нескольких «счастливчиков» уйти с моста. И как раз вовремя: как и предвидел Сэм, мост рушится на их глазах и множество людей погибает. Однако Сэм и его девушка Молли понимают, что смерть дала им лишь отсрочку, так как выжившие начинают погибать один за другим. Он должен понять, как обманув смерть однажды, обмануть её ещё раз, прежде чем настанет его очередь.
Внимание: Справа и слева у видеоряда обрезано по 248р, что дает возможность просмотра на полный экран (без черных полос) на телевизорах с соотношением сторон 16:9 без изменения пропорций.
Более подробная информация
Формат 3D: OverUnder
Качество: HDRip
Видео: AVC, High@L4.0, 1920x1080, 23.976 fps, 9653 Кбит/сек
Аудио: Rus, AC-3, 6 каналов, 640 Кбит/сек, 48,0 КГц
Аудио: Eng, AC-3, 6 каналов, 640 Кбит/сек, 48,0 КГц

Скриншоты



MediaInfo

Общее
Уникальный идентификатор : 197652466557761337050723877406031451250 (0x94B27AFB01B9D713B751B75402979472)
Полное имя : E:\STEREO CROP\The Final Destination 5_(CROP).mkv
Формат : Matroska
Версия формата : Version 2
Размер файла : 7,15 Гбайт
Продолжительность : 1 ч. 31 м.
Общий поток : 11,2 Мбит/сек
Название фильма : Rip by Dag13
Дата кодирования : UTC 2012-10-06 16:10:47
Программа кодирования : mkvmerge v3.4.0 ('Rapunzel') сборка от May 15 2010 09:38:20
Библиотека кодирования : libebml v0.8.0 + libmatroska v0.9.0
Видео
Идентификатор : 1
Формат : AVC
Формат/Информация : Advanced Video Codec
Профиль формата : High@L4.0
Параметр CABAC формата : Да
Параметр ReFrames формата : 4 кадра
Идентификатор кодека : V_MPEG4/ISO/AVC
Продолжительность : 1 ч. 31 м.
Битрейт : 9653 Кбит/сек
Ширина : 1920 пикселей
Высота : 1080 пикселей
Соотношение сторон : 16:9
Режим частоты кадров : Постоянный
Частота кадров : 23,976 кадра/сек
Цветовое пространство : YUV
Субдискретизация насыщенности : 4:2:0
Битовая глубина : 8 бит
Тип развёртки : Прогрессивная
Бит/(Пиксели*Кадры) : 0.194
Размер потока : 6,19 Гбайт (87%)
Библиотека кодирования : x264 core 120 r2145 748fe16
Настройки программы : cabac=1 / ref=4 / deblock=1:-3:-2 / analyse=0x3:0x113 / me=umh / subme=9 / psy=1 / psy_rd=1.00:0.00 / mixed_ref=1 / me_range=16 / chroma_me=1 / trellis=1 / 8x8dct=1 / cqm=0 / deadzone=21,11 / fast_pskip=1 / chroma_qp_offset=-2 / threads=9 / sliced_threads=0 / nr=0 / decimate=1 / interlaced=0 / bluray_compat=0 / constrained_intra=0 / bframes=6 / b_pyramid=0 / b_adapt=2 / b_bias=0 / direct=3 / weightb=1 / open_gop=0 / weightp=2 / keyint=250 / keyint_min=23 / scenecut=40 / intra_refresh=0 / rc_lookahead=60 / rc=crf / mbtree=1 / crf=18.0 / qcomp=0.60 / qpmin=0 / qpmax=69 / qpstep=4 / ip_ratio=1.40 / aq=1:1.00
Язык : English
Default : Нет
Forced : Нет
Аудио #1
Идентификатор : 2
Формат : AC-3
Формат/Информация : Audio Coding 3
Расширение режима : CM (complete main)
Параметр Endianness формата : Big
Идентификатор кодека : A_AC3
Продолжительность : 1 ч. 31 м.
Вид битрейта : Постоянный
Битрейт : 640 Кбит/сек
Каналы : 6 каналов
Расположение каналов : Front: L C R, Side: L R, LFE
Частота : 48,0 КГц
Битовая глубина : 16 бит
Метод сжатия : С потерями
Размер потока : 420 Мбайт (6%)
Язык : Russian
Default : Да
Forced : Нет
Аудио #2
Идентификатор : 3
Формат : AC-3
Формат/Информация : Audio Coding 3
Расширение режима : CM (complete main)
Параметр Endianness формата : Big
Идентификатор кодека : A_AC3
Продолжительность : 1 ч. 31 м.
Вид битрейта : Постоянный
Битрейт : 640 Кбит/сек
Каналы : 6 каналов
Расположение каналов : Front: L C R, Side: L R, LFE
Частота : 48,0 КГц
Битовая глубина : 16 бит
Метод сжатия : С потерями
Размер потока : 420 Мбайт (6%)
Язык : English
Default : Нет
Forced : Нет
Остальные раздачи этого фильма (6)
Благодарности релизеру (128)

Торрент:

Статус:

Размер:

Зарегистрирован   [ 2012-10-06 21:14 ]

проверено

7.15 GB

 
 Мнение о фильме (32)

Пред.  1, 2






фильм для молодежи до 20 лет, один раз посмотреть можно для прикола
 

Качество фильма отличное. 3Д эффекты присутствуют. Но сам фильм дешевая страшилка.
 

Как бы... все что можно увидеть в очередной части "Пункт назначения" это новые, изощренные способы смертей. И ВСЁ! На этом весь интерес фильма заканчивается. Посмотрел весь но, исключительно ради 3D - оно вполне забавное местами.
 

Отличный фильм) девченкам понравился
 

Фильм неплохой, но как мне кажется он больше для молодежи
 

Качество фильма отличное. 3Д эффекты присутствуют. Особенно понравился сюжет с обрушением моста!
 

3Д хорошее.Фильм интересный в своем жанре.С удовольствием посмотрел на весь экран.
 

3D не присутствует, Я не понимаю тех людей которые дают оценку 3D, значит они его не видели.
 

megal, судя по вашим двум сообщениям - это вы не можете видеть 3Д (а по какой причине - особенности организма или технические вопросы - это уж сами разбирайтесь!).
 

3D Суперрр
 

ребята молодцы!!! фильм классный,3д вообще отличное огромное спасибо Вам!!!
 

Друзья дайте скорости очень хотим посмотреть в 3d
 

Страница 2 из 2

Пред.  1, 2