Торренты   
 
 

 

Мадагаскар 3 / Madagascar 3: Europe's Most Wanted (Эрик Дарнелл, Том МакГрат, Конрад Вернон) [2012 г., Anamorph OverUnder]

Рейтинг 3D:
282 голосов
9.2
Рейтинг фильма:
277 голосов
8.6
 
Вы должны быть авторизированы,
чтобы ставить оценки


Мадагаскар 3 / Madagascar 3: Europe's Most Wanted
Год выпуска: 2012
Страна: США, DreamWorks Animation, Pacific Data Images (PDI), Legend3D
Жанр: Мультфильм, комедия
Продолжительность: 01:33:24
Перевод: Профессиональный (полное дублирование)
Режиссер: Эрик Дарнелл, Том МакГрат, Конрад Вернон
В ролях: Бен Стиллер, Саша Барон Коэн, Дэвид Швиммер, Фрэнсис МакДорманд, Крис Рок, Джада Пинкетт Смит, Шерри Шеперд, Седрик «Развлекатель», Энди Рихтер, Андре Бенджамин, Фрэнк Уэлкер, Том МакГрат, Джессика Честейн, Брайан Крэнстон, Мартин Шорт, Крис Миллер, Кристофер Найтс, Конрад Вернон, Винни Джонс, Стив Джонс, Ник Флетчер, Паз Вега, Дэнни Джейкобс, Дэн О`Коннор, Эрик Дарнелл, Стивен Кеарин, Эмили Нордвинд
Описание: Лев Алекс, зебра Марти, жираф Мелман и бегемот Глория присоединяются к бродячему цирку, в надежде вернуться в Нью-Йорк.
Формат 3D: Anamorph OverUnder
Видео: MPEG4 AVC, 13.5 Мбит/с, , 1920x1080, 23.976 кадр/с
Аудио: Русский (AC3, 6 ch, 448 Кбит/с), английский (AC3, 6 ch, 640 Кбит/с)

Скриншоты

инфо

General
Unique ID : 180931444345387290916357993830156510965 (0x881E20EF82097EA1B03F9AAB1452A6F5)
Complete name : M:\Кино3Д\Madagaskar.3.3D.2012.x264.BDRip.1080p.kinozal.tv.mkv
Format : Matroska
Format version : Version 2
File size : 9.52 GiB
Duration : 1h 33mn
Overall bit rate : 14.6 Mbps
Encoded date : UTC 2012-10-06 17:47:28
Writing application : mkvmerge v3.4.0 ('Rapunzel') сборка от May 15 2010 09:38:20
Writing library : libebml v0.8.0 + libmatroska v0.9.0
Video
ID : 1
Format : AVC
Format/Info : Advanced Video Codec
Format profile : High@L4.1
Format settings, CABAC : Yes
Format settings, ReFrames : 4 frames
Codec ID : V_MPEG4/ISO/AVC
Duration : 1h 33mn
Bit rate : 13.5 Mbps
Width : 1 920 pixels
Height : 1 080 pixels
Display aspect ratio : 16:9
Frame rate : 23.976 fps
Color space : YUV
Chroma subsampling : 4:2:0
Bit depth : 8 bits
Scan type : Progressive
Bits/(Pixel*Frame) : 0.272
Stream size : 8.62 GiB (91%)
Writing library : x264 core 128 r2216 198a7ea
Encoding settings : cabac=1 / ref=4 / deblock=1:-3:-3 / analyse=0x3:0x113 / me=tesa / subme=10 / psy=1 / psy_rd=0.80:0.00 / mixed_ref=1 / me_range=32 / chroma_me=1 / trellis=2 / 8x8dct=1 / cqm=0 / deadzone=21,11 / fast_pskip=1 / chroma_qp_offset=-2 / threads=12 / lookahead_threads=2 / sliced_threads=0 / nr=0 / decimate=0 / interlaced=0 / bluray_compat=0 / constrained_intra=0 / bframes=7 / b_pyramid=2 / b_adapt=2 / b_bias=0 / direct=3 / weightb=1 / open_gop=0 / weightp=2 / keyint=250 / keyint_min=23 / scenecut=40 / intra_refresh=0 / rc_lookahead=80 / rc=2pass / mbtree=1 / bitrate=13500 / ratetol=1.0 / qcomp=0.65 / qpmin=5 / qpmax=65 / qpstep=4 / cplxblur=20.0 / qblur=0.5 / ip_ratio=1.40 / aq=1:0.90
Language : English
Default : No
Forced : No
Audio #1
ID : 2
Format : AC-3
Format/Info : Audio Coding 3
Mode extension : CM (complete main)
Format settings, Endianness : Big
Codec ID : A_AC3
Duration : 1h 33mn
Bit rate mode : Constant
Bit rate : 448 Kbps
Channel(s) : 6 channels
Channel positions : Front: L C R, Side: L R, LFE
Sampling rate : 48.0 KHz
Bit depth : 16 bits
Compression mode : Lossy
Stream size : 299 MiB (3%)
Language : Russian
Default : Yes
Forced : No
Audio #2
ID : 3
Format : AC-3
Format/Info : Audio Coding 3
Mode extension : CM (complete main)
Format settings, Endianness : Big
Codec ID : A_AC3
Duration : 1h 33mn
Bit rate mode : Constant
Bit rate : 640 Kbps
Channel(s) : 6 channels
Channel positions : Front: L C R, Side: L R, LFE
Sampling rate : 48.0 KHz
Bit depth : 16 bits
Compression mode : Lossy
Stream size : 428 MiB (4%)
Language : English
Default : No
Forced : No
Menu
00:00:00.000 : en:00:00:00.000
00:05:16.316 : en:00:05:16.316
00:10:51.985 : en:00:10:51.985
00:19:46.310 : en:00:19:46.310
00:27:49.835 : en:00:27:49.835
00:32:50.552 : en:00:32:50.552
00:40:34.974 : en:00:40:34.974
00:46:51.976 : en:00:46:51.976
00:52:00.534 : en:00:52:00.534
00:58:55.157 : en:00:58:55.157
01:00:23.411 : en:01:00:23.411
01:04:19.314 : en:01:04:19.314
01:10:59.672 : en:01:10:59.672
01:15:30.317 : en:01:15:30.317
01:21:09.782 : en:01:21:09.782
01:22:48.630 : en:01:22:48.630
Благодарности релизеру (77)

Торрент:

Статус:

Размер:

Зарегистрирован   [ 2012-10-06 22:57 ]

поглощено

9.52 GB

 
Комментарии:

1, 2, 3  След.






Как качество? Как 3D?
3D - великолепное. Ставлю высший бал. Создатели воспользовались объемом очень умело, в отличии от Шреков.
Качество релиза на 4. Очень даже смотрибельное, но приправленное периодическими артефактами.
чистый звук с кинотеатра который записан из Line-in
И там внатуре 5.1?
 

О!!!!Да!!!Это как раз любителей вылетов!!!:)
 

вылеты присутствуют?
3D использовано очень эффективно. Большая глубина и довольно частые качественные вылеты есть напротяжение всего фильма.
 

Спасибо большое! Рекордсмен по вылетам из мультиков!
 

спасибо......просто блеск
 

Mультик прикольный.3Д ооочень порадовало, на 10-тку
 

Спасибо!!! сейчас посмотрим и оценим.
 

Мультик прикольный ,3D отличное , автору спасибо за труды !
 

Класный мульт.Класное 3D.Спасибо!!!
 

Класное 3D.Спасибо!!!
 

Смотрел c ребёнком в кино в 3D - 5 баллов! В коллекцию! Tридэ на отлично! Спасибо!
 

Эта лучшая часть Мадагаскара. Фразы из мультфильма могут стать народными. Скачал и включил проверить качество и не оторвался.
 

Все бы так! 3д супер.
 

Зебра с полетами супер!!!))))))
 

По 3Д супер, а мульту чегото нехватает)))
 

мульт ржачный качество 3D супер смотреть всем!!!
 

спасибо! отличный мульт и отличное 3д!
 

спасибо!!!!! 3д на все100. качать всем.
 

Эта часть лучше первых двух и 3Д на отлично.
 

Очень классный мульт, а 3D вообще суперское!!Всё очень красочно и ярко!Спасибо!)
 

Страница 1 из 3

1, 2, 3  След.