Торренты   
 
 

 

Мадагаскар III / Madagascar III (Эрик Дарнелл, Том МакГрат, Конрад Вернон) [2012 г., BDRip 1080p, Full OverUnder]

Рейтинг 3D:
282 голосов
9.2
Рейтинг фильма:
277 голосов
8.6
 
Вы должны быть авторизированы,
чтобы ставить оценки


Мадагаскар III / Madagascar III
Год выпуска: 2012
Страна: США
Жанр: Мультфильм, комедия
Продолжительность: 01:33:24
Перевод: Профессиональный (полное дублирование)
Режиссер: Эрик Дарнелл, Том МакГрат, Конрад Вернон
В ролях: Бен Стиллер, Саша Барон Коэн, Дэвид Швиммер, Фрэнсис МакДорманд, Крис Рок, Джада Пинкетт Смит, Шерри Шеперд, Седрик «Развлекатель», Энди Рихтер, Андре Бенджамин, Фрэнк Уэлкер, Том МакГрат, Джессика Честейн, Брайан Крэнстон, Мартин Шорт, Крис Миллер, Кристофер Найтс, Конрад Вернон, Винни Джонс, Стив Джонс, Ник Флетчер, Паз Вега, Дэнни Джейкобс, Дэн О`Коннор, Эрик Дарнелл, Стивен Кеарин, Эмили Нордвинд
Описание: Лев Алекс, зебра Марти, жираф Мелман и бегемот Глория присоединяются к бродячему цирку, в надежде вернуться в Нью-Йорк.
Формат 3D: OverUnder
Видео: AVC, High@L5.0, 1920x2160, 23.976 fps, 19,0 Мбит/сек
Аудио: Rus, AC-3, 6 каналов, 640 Кбит/сек, 48,0 КГц
Аудио: Ukr, AC-3, 6 каналов, 640 Кбит/сек, 48,0 КГц
Аудио: Eng, AC-3, 6 каналов, 640 Кбит/сек, 48,0 КГц

Скриншоты




MediaInfo

Общее
Уникальный идентификатор : 177644144163928837496257327676316461683 (0x85A50485F539031AB239B1590C982A73)
Полное имя : E:\STEREO\Madagascar III 1080p.mkv
Формат : Matroska
Версия формата : Version 2
Размер файла : 13,9 Гбайт
Продолжительность : 1 ч. 33 м.
Общий поток : 21,3 Мбит/сек
Название фильма : Rip by Dag13
Дата кодирования : UTC 2012-10-19 18:37:39
Программа кодирования : mkvmerge v3.4.0 ('Rapunzel') сборка от May 15 2010 09:38:20
Библиотека кодирования : libebml v0.8.0 + libmatroska v0.9.0
Видео
Идентификатор : 1
Формат : AVC
Формат/Информация : Advanced Video Codec
Профиль формата : High@L5.0
Параметр CABAC формата : Да
Параметр ReFrames формата : 4 кадра
Идентификатор кодека : V_MPEG4/ISO/AVC
Продолжительность : 1 ч. 33 м.
Битрейт : 19,0 Мбит/сек
Ширина : 1920 пикселей
Высота : 2160 пикселей
Соотношение сторон : 0,889
Режим частоты кадров : Постоянный
Частота кадров : 23,976 кадра/сек
Цветовое пространство : YUV
Субдискретизация насыщенности : 4:2:0
Битовая глубина : 8 бит
Тип развёртки : Прогрессивная
Бит/(Пиксели*Кадры) : 0.191
Размер потока : 12,4 Гбайт (89%)
Библиотека кодирования : x264 core 120 r2145 748fe16
Настройки программы : cabac=1 / ref=4 / deblock=1:-2:-2 / analyse=0x3:0x113 / me=umh / subme=9 / psy=1 / psy_rd=1.00:0.00 / mixed_ref=1 / me_range=16 / chroma_me=1 / trellis=1 / 8x8dct=1 / cqm=0 / deadzone=21,11 / fast_pskip=1 / chroma_qp_offset=-2 / threads=9 / sliced_threads=0 / nr=0 / decimate=1 / interlaced=0 / bluray_compat=0 / constrained_intra=0 / bframes=6 / b_pyramid=0 / b_adapt=2 / b_bias=0 / direct=3 / weightb=1 / open_gop=0 / weightp=2 / keyint=250 / keyint_min=23 / scenecut=40 / intra_refresh=0 / rc_lookahead=60 / rc=crf / mbtree=1 / crf=18.0 / qcomp=0.60 / qpmin=0 / qpmax=69 / qpstep=4 / ip_ratio=1.40 / aq=1:1.00
Язык : English
Default : Нет
Forced : Нет
Аудио #1
Идентификатор : 2
Формат : AC-3
Формат/Информация : Audio Coding 3
Расширение режима : CM (complete main)
Параметр Endianness формата : Big
Идентификатор кодека : A_AC3
Продолжительность : 1 ч. 33 м.
Вид битрейта : Постоянный
Битрейт : 640 Кбит/сек
Каналы : 6 каналов
Расположение каналов : Front: L C R, Side: L R, LFE
Частота : 48,0 КГц
Битовая глубина : 16 бит
Метод сжатия : С потерями
Размер потока : 428 Мбайт (3%)
Заголовок : DUB
Язык : Russian
Default : Нет
Forced : Нет
Аудио #2
Идентификатор : 3
Формат : AC-3
Формат/Информация : Audio Coding 3
Расширение режима : CM (complete main)
Параметр Endianness формата : Big
Идентификатор кодека : A_AC3
Продолжительность : 1 ч. 33 м.
Вид битрейта : Постоянный
Битрейт : 640 Кбит/сек
Каналы : 6 каналов
Расположение каналов : Front: L C R, Side: L R, LFE
Частота : 48,0 КГц
Битовая глубина : 16 бит
Метод сжатия : С потерями
Размер потока : 428 Мбайт (3%)
Заголовок : DUB
Язык : Ukrainian
Default : Нет
Forced : Нет
Аудио #3
Идентификатор : 4
Формат : AC-3
Формат/Информация : Audio Coding 3
Расширение режима : CM (complete main)
Параметр Endianness формата : Big
Идентификатор кодека : A_AC3
Продолжительность : 1 ч. 33 м.
Вид битрейта : Постоянный
Битрейт : 640 Кбит/сек
Каналы : 6 каналов
Расположение каналов : Front: L C R, Side: L R, LFE
Частота : 48,0 КГц
Битовая глубина : 16 бит
Метод сжатия : С потерями
Размер потока : 428 Мбайт (3%)
Язык : English
Default : Нет
Forced : Нет
На встроенных ТВ-плейерах показывать НЕ будет!!!Торрент обновлен. Русская дорожка заменена на лицензию. Добавлен украинсий дубляж. Просьба обновить торрент файл.
Остальные раздачи этого фильма (4)
Благодарности релизеру (37)

Торрент:

Статус:

Размер:

Зарегистрирован   [ 2012-10-19 23:00 ]

проверено

13.89 GB

 
 Мнение о фильме (46)

1, 2, 3  След.






Как качество? Как 3D?
3D - великолепное. Ставлю высший бал. Создатели воспользовались объемом очень умело, в отличии от Шреков.
Качество релиза на 4. Очень даже смотрибельное, но приправленное периодическими артефактами.
чистый звук с кинотеатра который записан из Line-in
И там внатуре 5.1?
 

О!!!!Да!!!Это как раз любителей вылетов!!!:)
 

вылеты присутствуют?
3D использовано очень эффективно. Большая глубина и довольно частые качественные вылеты есть напротяжение всего фильма.
 

Спасибо большое! Рекордсмен по вылетам из мультиков!
 

спасибо......просто блеск
 

Mультик прикольный.3Д ооочень порадовало, на 10-тку
 

Спасибо!!! сейчас посмотрим и оценим.
 

Мультик прикольный ,3D отличное , автору спасибо за труды !
 

Класный мульт.Класное 3D.Спасибо!!!
 

Класное 3D.Спасибо!!!
 

Смотрел c ребёнком в кино в 3D - 5 баллов! В коллекцию! Tридэ на отлично! Спасибо!
 

Эта лучшая часть Мадагаскара. Фразы из мультфильма могут стать народными. Скачал и включил проверить качество и не оторвался.
 

Все бы так! 3д супер.
 

Зебра с полетами супер!!!))))))
 

По 3Д супер, а мульту чегото нехватает)))
 

мульт ржачный качество 3D супер смотреть всем!!!
 

спасибо! отличный мульт и отличное 3д!
 

спасибо!!!!! 3д на все100. качать всем.
 

Эта часть лучше первых двух и 3Д на отлично.
 

Очень классный мульт, а 3D вообще суперское!!Всё очень красочно и ярко!Спасибо!)
 

Страница 1 из 3

1, 2, 3  След.