Торренты   
 
 


Раскрашенная кожа 2 / Painted Skin: The Resurrection / Hua Pi 2 (Уэршань / Wuershan) [2012 г., BDRip 1080p, Full OverUnder]

Рейтинг 3D:
4 голосов
5.8
Рейтинг фильма:
3 голосов
7.7
 
Вы должны быть авторизированы,
чтобы ставить оценки


Раскрашенная кожа 2 / Painted Skin: The Resurrection / Hua Pi 2
Год выпуска: 2012
Страна: Китай
Жанр: Фэнтези, боевик, триллер, драма
Продолжительность: 02:11:32
Перевод: Любительский (двухголосый)
Режиссер: Уэршань / Wuershan
В ролях: Чжоу Сюнь , Чэнь Кунь, Чжао Вэй
Описание: Чтобы стать смертным демон должен прожить на земле несколько сот лет, но и этого недостаточно, чтобы ощутить весь спектр человеческих эмоций и подлинную экзистенциальную грусть. Для получения этих бонусов демон должен найти человека, готового пожертвовать собственными чувствами и собственной бессмертной душой.
Формат 3D: OverUnder
Видео: AVC, High@L5.0, 1920x1632, 23.976 fps, 16,4 Мбит/сек
Аудио: Rus, MP3, 2 канала, 128 Кбит/сек, 48,0 КГц
Аудио: Chi, DTS, 6 каналов, 1510 Кбит/сек, 48,0 КГц

Скриншоты




MediaInfo

Общее
Уникальный идентификатор : 201523423055283145590993557895822971558 (0x979BFFDEF43C0D62B8EC6997D86812A6)
Полное имя : E:\STEREO\Painted skin the resurrection 1080p.mkv
Формат : Matroska
Версия формата : Version 2
Размер файла : 16,9 Гбайт
Продолжительность : 2 ч. 11 м.
Общий поток : 18,4 Мбит/сек
Название фильма : Rip by Dag13
Дата кодирования : UTC 2012-10-09 09:12:57
Программа кодирования : mkvmerge v3.4.0 ('Rapunzel') сборка от May 15 2010 09:38:20
Библиотека кодирования : libebml v0.8.0 + libmatroska v0.9.0
Видео
Идентификатор : 1
Формат : AVC
Формат/Информация : Advanced Video Codec
Профиль формата : High@L5.0
Параметр CABAC формата : Да
Параметр ReFrames формата : 4 кадра
Идентификатор кодека : V_MPEG4/ISO/AVC
Продолжительность : 2 ч. 11 м.
Битрейт : 16,4 Мбит/сек
Ширина : 1920 пикселей
Высота : 1632 пикселя
Соотношение сторон : 1,176
Режим частоты кадров : Постоянный
Частота кадров : 23,976 кадра/сек
Цветовое пространство : YUV
Субдискретизация насыщенности : 4:2:0
Битовая глубина : 8 бит
Тип развёртки : Прогрессивная
Бит/(Пиксели*Кадры) : 0.218
Размер потока : 15,1 Гбайт (89%)
Библиотека кодирования : x264 core 120 r2145 748fe16
Настройки программы : cabac=1 / ref=4 / deblock=1:-1:-2 / analyse=0x3:0x113 / me=umh / subme=9 / psy=1 / psy_rd=1.00:0.00 / mixed_ref=1 / me_range=16 / chroma_me=1 / trellis=1 / 8x8dct=1 / cqm=0 / deadzone=21,11 / fast_pskip=1 / chroma_qp_offset=-2 / threads=9 / sliced_threads=0 / nr=0 / decimate=1 / interlaced=0 / bluray_compat=0 / constrained_intra=0 / bframes=6 / b_pyramid=0 / b_adapt=2 / b_bias=0 / direct=3 / weightb=1 / open_gop=0 / weightp=2 / keyint=250 / keyint_min=23 / scenecut=40 / intra_refresh=0 / rc_lookahead=60 / rc=crf / mbtree=1 / crf=18.0 / qcomp=0.60 / qpmin=0 / qpmax=69 / qpstep=4 / ip_ratio=1.40 / aq=1:1.00
Язык : English
Default : Нет
Forced : Нет
Аудио #1
Идентификатор : 2
Формат : MPEG Audio
Версия формата : Version 1
Профиль формата : Layer 3
Режим : Joint stereo
Расширение режима : MS Stereo
Идентификатор кодека : A_MPEG/L3
Идентификатор кодека/Подсказка : MP3
Продолжительность : 2 ч. 11 м.
Вид битрейта : Постоянный
Битрейт : 128 Кбит/сек
Каналы : 2 канала
Частота : 48,0 КГц
Метод сжатия : С потерями
Размер потока : 120 Мбайт (1%)
Язык : Russian
Default : Нет
Forced : Нет
Аудио #2
Идентификатор : 3
Формат : DTS
Формат/Информация : Digital Theater Systems
Идентификатор кодека : A_DTS
Продолжительность : 2 ч. 11 м.
Вид битрейта : Постоянный
Битрейт : 1510 Кбит/сек
Каналы : 6 каналов
Расположение каналов : Front: L C R, Side: L R, LFE
Частота : 48,0 КГц
Битовая глубина : 16 бит
Метод сжатия : С потерями
Размер потока : 1,39 Гбайт (8%)
Язык : Chinese
Default : Нет
Forced : Нет
На встроенных ТВ-плейерах показывать НЕ будет!!!
Благодарности релизеру (5)

Торрент:

Статус:

Размер:

Зарегистрирован   [ 2012-10-09 13:58 ]

проверено

16.89 GB

 
 Мнение о фильме (1)





Фильм, между прочим не так уж и плох - кто любит китайские фильмы - крепкая середина