Торренты   
 
 

 

Пункт назначения 4 / The Final Destination 4 (Дэвид Р. Эллис / David R. Ellis) [2009 г., HDRip, Crop, Anamorph OverUnder]

Рейтинг 3D:
81 голосов
8.6
Рейтинг фильма:
76 голосов
8.2
 
Вы должны быть авторизированы,
чтобы ставить оценки


Пункт назначения 4 / The Final Destination 4
Год выпуска: 2009
Страна: США
Жанр: Триллер, Ужасы
Продолжительность: 01:21:46
Перевод: Профессиональный (полное дублирование)
Режиссер: Дэвид Р. Эллис / David R. Ellis
В ролях: Бобби Кампо, Шантель Ван Сантен, Ник Зано, Хейли Уэбб, Майкелти Уильямсон, Криста Аллен...
Описание: История на этот раз вращается вокруг Ника О`Бэннона, к молодому человеку приходит видение — на автогонках произойдет ужасная трагедия, жертвами которой станут его друзья и он сам. Как и прежде группе счастливчиков, благодаря Нику, удается выжить, но смерть вовсе не спешит вычеркивать их из своего списка.
Внимание: Справа и слева у видеоряда обрезано по 248р, что дает возможность просмотра на полный экран (без черных полос) на телевизорах с соотношением сторон 16:9 без изменения пропорций.
Более подробная информация
Формат 3D: OverUnder
Качество: HDRip
Видео: AVC, High@L4.0, 1920x1080, 23.976 fps, 18,7 Мбит/сек
Аудио: Rus, AC-3, 6 каналов, 448 Кбит/сек, 48,0 КГц
Аудио: Eng, AC-3, 6 каналов, 640 Кбит/сек, 48,0 КГц

Скриншоты




MediaInfo

Общее
Уникальный идентификатор : 201491177644113548974570320994032090809 (0x9795CA0CA568C2D89F7657D37F32FEB9)
Полное имя : E:\STEREO CROP\The Final Destination 4_(CROP).mkv
Формат : Matroska
Версия формата : Version 2
Размер файла : 11,5 Гбайт
Продолжительность : 1 ч. 21 м.
Общий поток : 20,2 Мбит/сек
Название фильма : The Final Destination 4_Rip by Dag13
Дата кодирования : UTC 2012-10-09 16:14:08
Программа кодирования : mkvmerge v3.4.0 ('Rapunzel') сборка от May 15 2010 09:38:20
Библиотека кодирования : libebml v0.8.0 + libmatroska v0.9.0
Видео
Идентификатор : 1
Формат : AVC
Формат/Информация : Advanced Video Codec
Профиль формата : High@L4.0
Параметр CABAC формата : Да
Параметр ReFrames формата : 4 кадра
Идентификатор кодека : V_MPEG4/ISO/AVC
Продолжительность : 1 ч. 21 м.
Битрейт : 18,7 Мбит/сек
Ширина : 1920 пикселей
Высота : 1080 пикселей
Соотношение сторон : 16:9
Режим частоты кадров : Постоянный
Частота кадров : 23,976 кадра/сек
Цветовое пространство : YUV
Субдискретизация насыщенности : 4:2:0
Битовая глубина : 8 бит
Тип развёртки : Прогрессивная
Бит/(Пиксели*Кадры) : 0.376
Размер потока : 10,7 Гбайт (93%)
Библиотека кодирования : x264 core 120 r2145 748fe16
Настройки программы : cabac=1 / ref=4 / deblock=1:-3:-2 / analyse=0x3:0x113 / me=umh / subme=9 / psy=1 / psy_rd=1.00:0.00 / mixed_ref=1 / me_range=16 / chroma_me=1 / trellis=1 / 8x8dct=1 / cqm=0 / deadzone=21,11 / fast_pskip=1 / chroma_qp_offset=-2 / threads=9 / sliced_threads=0 / nr=0 / decimate=1 / interlaced=0 / bluray_compat=0 / constrained_intra=0 / bframes=6 / b_pyramid=0 / b_adapt=2 / b_bias=0 / direct=3 / weightb=1 / open_gop=0 / weightp=2 / keyint=250 / keyint_min=23 / scenecut=40 / intra_refresh=0 / rc_lookahead=60 / rc=crf / mbtree=1 / crf=17.0 / qcomp=0.60 / qpmin=0 / qpmax=69 / qpstep=4 / ip_ratio=1.40 / aq=1:1.00
Язык : English
Default : Нет
Forced : Нет
Аудио #1
Идентификатор : 2
Формат : AC-3
Формат/Информация : Audio Coding 3
Расширение режима : CM (complete main)
Параметр Endianness формата : Big
Идентификатор кодека : A_AC3
Продолжительность : 1 ч. 21 м.
Вид битрейта : Постоянный
Битрейт : 448 Кбит/сек
Каналы : 6 каналов
Расположение каналов : Front: L C R, Side: L R, LFE
Частота : 48,0 КГц
Битовая глубина : 16 бит
Метод сжатия : С потерями
Размер потока : 262 Мбайт (2%)
Язык : Russian
Default : Нет
Forced : Нет
Аудио #2
Идентификатор : 3
Формат : AC-3
Формат/Информация : Audio Coding 3
Расширение режима : CM (complete main)
Параметр Endianness формата : Big
Идентификатор кодека : A_AC3
Продолжительность : 1 ч. 21 м.
Вид битрейта : Постоянный
Битрейт : 640 Кбит/сек
Каналы : 6 каналов
Расположение каналов : Front: L C R, Side: L R, LFE
Частота : 48,0 КГц
Битовая глубина : 16 бит
Метод сжатия : С потерями
Размер потока : 375 Мбайт (3%)
Язык : English
Default : Нет
Forced : Нет
Остальные раздачи этого фильма (7)
Благодарности релизеру (87)

Торрент:

Статус:

Размер:

Зарегистрирован   [ 2012-10-09 21:05 ]

проверено

11.55 GB

 
 Мнение о фильме (14)





Смотрю уже скорее по привычке, как сериал
 

спасибо 3D не плохое
 

Наконец-то посмотрел.ОТЛИЧНОООО! И 3д и сам фильм.
 

Раздайте пожалуйста!!!
 

3d отличное, сам фильм несколько скучноватый...
 

Один из лучших фильмов, что я видел, в самый раз для 3-д
 
Алексей "51" Профиль 03-Окт-2013 01:37

Фильм шикарный!!
 

Фильм супер лучшее 3д не видел
 

Фильм и 3D отличное.
 

хрень
 

3д супер фильм на любителя
 

норм
 

Раздайте плиз
 

Друзья дайте скорость, очень хочу посмотреть этот фильм