Торренты   
 
 

 

Обитатель Черной лагуны / The Creature from the Black Lagoon (Джек Арнольд / Jack Arnold) [1954 г., BDRip 1080p, Full OverUnder]

Рейтинг 3D:
25 голосов
8.9
Рейтинг фильма:
27 голосов
7.7
 
Вы должны быть авторизированы,
чтобы ставить оценки


Обитатель Черной лагуны / The Creature from the Black Lagoon
Год выпуска: 1954
Страна: США
Жанр: Боевик, Приключения, Ужасы.
Продолжительность: 01:19:14
Перевод: Профессиональный (многоголосый, закадровый)
Режиссер: Джек Арнольд / Jack Arnold
В ролях: Ричард Карлсон /Richard Carlson/, Джулия Адамс /Julie Adams/, Ричард Дэннинг /Richard Denning/
Описание: В глубоких амазонских дебрях, капаеться в земле палеантологическая экспедиция. Не найдя того, чего искали, ученые мужи решили проверить - а может то, что искали, отнесло течением в зловещую Черную лагуну!? Надо проверить и покапать там. Забрались, начали искать... дальше, понятно: на сцене появляеться главный герой фильма и последовательно кушает (вернее, просто убивает, безпричинно) мужественных ученых; за исключением барышни-красавицы, которую просто крадет, очевидно для продолжение рода (хотя, кто в 50-х годах о таких ужасах мог заикаться; по фильму - вероятно, просто влюбился Фильм, классический ужастик студии Universal, сняты небезизвестым мастером тогдашних ужасов Дж.Арнольдом. Смотриться наивно, но небезинтересно. У классических космических "Чужих", оказываеться были предки на Земле! Особо отмечу - подводные сьемки ( даже сегодня смотряться весьма качественно и зрелещно)..
Формат 3D: OverUnder
Видео: AVC, High@L5.0, 1920x2080, 23.976 fps, 44,7 Мбит/сек
Аудио: Rus, AC-3, 2 канала, 256 Кбит/сек, 48,0 КГц
Аудио: Eng, DTS, 6 каналов, 1510 Кбит/сек, 48,0 КГц

Скриншоты




MediaInfo

Общее
Уникальный идентификатор : 193316963716649105972476333529526113091 (0x916F7E2FDF9D3BA78680B376EE531343)
Полное имя : E:\STEREO\Creature From The Black Lagoon 1080p.mkv
Формат : Matroska
Версия формата : Version 2
Размер файла : 26,2 Гбайт
Продолжительность : 1 ч. 19 м.
Общий поток : 47,4 Мбит/сек
Дата кодирования : UTC 2012-10-12 09:30:12
Программа кодирования : mkvmerge v3.4.0 ('Rapunzel') сборка от May 15 2010 09:38:20
Библиотека кодирования : libebml v0.8.0 + libmatroska v0.9.0
Видео
Идентификатор : 1
Формат : AVC
Формат/Информация : Advanced Video Codec
Профиль формата : High@L5.0
Параметр CABAC формата : Да
Параметр ReFrames формата : 5 кадров
Идентификатор кодека : V_MPEG4/ISO/AVC
Продолжительность : 1 ч. 19 м.
Битрейт : 44,7 Мбит/сек
Ширина : 1920 пикселей
Высота : 2080 пикселей
Соотношение сторон : 0,923
Режим частоты кадров : Постоянный
Частота кадров : 23,976 кадра/сек
Цветовое пространство : YUV
Субдискретизация насыщенности : 4:2:0
Битовая глубина : 8 бит
Тип развёртки : Прогрессивная
Бит/(Пиксели*Кадры) : 0.467
Размер потока : 24,7 Гбайт (94%)
Библиотека кодирования : x264 core 120 r2145 748fe16
Настройки программы : cabac=1 / ref=5 / deblock=1:-3:-3 / analyse=0x3:0x113 / me=umh / subme=9 / psy=1 / psy_rd=1.00:0.15 / mixed_ref=1 / me_range=16 / chroma_me=1 / trellis=2 / 8x8dct=1 / cqm=0 / deadzone=21,11 / fast_pskip=1 / chroma_qp_offset=-3 / threads=9 / sliced_threads=0 / nr=0 / decimate=1 / interlaced=0 / bluray_compat=0 / constrained_intra=0 / bframes=6 / b_pyramid=2 / b_adapt=2 / b_bias=0 / direct=3 / weightb=1 / open_gop=0 / weightp=2 / keyint=250 / keyint_min=23 / scenecut=40 / intra_refresh=0 / rc_lookahead=60 / rc=crf / mbtree=1 / crf=18.0 / qcomp=0.60 / qpmin=1 / qpmax=61 / qpstep=4 / ip_ratio=1.40 / aq=1:1.00
Язык : English
Default : Нет
Forced : Нет
Аудио #1
Идентификатор : 2
Формат : AC-3
Формат/Информация : Audio Coding 3
Расширение режима : CM (complete main)
Параметр Endianness формата : Big
Идентификатор кодека : A_AC3
Продолжительность : 1 ч. 19 м.
Вид битрейта : Постоянный
Битрейт : 256 Кбит/сек
Каналы : 2 канала
Расположение каналов : Front: L R
Частота : 48,0 КГц
Битовая глубина : 16 бит
Метод сжатия : С потерями
Размер потока : 145 Мбайт (1%)
Язык : Russian
Default : Да
Forced : Нет
Аудио #2
Идентификатор : 3
Формат : DTS
Формат/Информация : Digital Theater Systems
Идентификатор кодека : A_DTS
Продолжительность : 1 ч. 19 м.
Вид битрейта : Постоянный
Битрейт : 1510 Кбит/сек
Каналы : 2 канала
Расположение каналов : Front: L R
Частота : 48,0 КГц
Битовая глубина : 24 бит
Метод сжатия : С потерями
Размер потока : 856 Мбайт (3%)
Язык : English
Default : Нет
Forced : Нет
На встроенных ТВ-плейерах показывать НЕ будет!!!
Остальные раздачи этого фильма (3)
Благодарности релизеру (8)

Торрент:

Статус:

Размер:

Зарегистрирован   [ 2012-10-12 13:58 ]

проверено

26.25 GB

 
 Мнение о фильме (14)





Как для фильма такого возраста 3D хорошо смотрится , а сюжет строго судить не надо - всётаки фильм раритет!!!
 

Для фильма 1954 года такой ужастик был и в правду классным, тем более в те времена не все уголки планеты еще были исследованы. И 3D честное ещё бы разукрасили фильм и тогда вообще классно было бы.
 

дааа, что сегоднешние ,что 54 года американские фильмы ну таие тупорылые...)))
 

3Д сделано грамотно и нет этого мельтешения и месива каждые полсекунды как в современных фильмах, когда мозг не в состоянии создать объём.
Вообщем как учебное пособие для начинающих 3Д операторов и режиссеров рекомендуется:)
 

Да учитывая возраст картины вполне сносно да и глубина здесь хорошая на раз пойдёт.
 

Фильм, не смотря на возраст, интересный, не чета многим современным фильмам. 3d эффект отличный! Создателю рипа огромное спасибо!!! сделан мастерски. А трекеру еще раз спасибо за возможность смотреть 3d Crop рипы.
 

фильм понравился!
 

dubl21 вот идиот тоГдА СмОтрИ ИндиЙсКиЕЕ!!!
 

как 3д сделано хорошо ну а сюжет сответствует своему времени я на два года старше его и когда-то видел Спасибо
 

Тихоокенский рубеж замечательно я ждал в 3д и не разачаровано всё отлично Спвсибо Всем
 

В описании раздачи указано, что на встроенных ТВ-плейерах не будет показывать. Подскажите тогда, как его воспроизвести (может надо другой плеер скачать и установить или ещё что) Телевизор lg 42la421v. В личку пожалуйста, заранее спасибо
 

3д норма
 

NeoKLaUD,
--В описании раздачи указано, что на встроенных ТВ-плейерах не будет показывать. Подскажите тогда, как его воспроизвести (может надо другой плеер скачать и установить или ещё что) Телевизор lg 42la421v. В личку пожалуйста, заранее спасибо
Проверено на встроенном плейере ТВ LG LW 650S
 

сюжет конечно наивен :)
ученые как сборище этаких простофилей :) (при этом и космос еще умудряются упомянуть))))))
ну и дамский визг при каждом появлении чудища стабильный - никаких новых эмоций :)
трогательно.
стерео эффект хороший, естественно присутствует рассинхрон фаз движения при съемке на 24fps.
также в разной степени появляется вертикальный рассинхрон ракурсов, что огорчает, т.к. его при издании легко свести к минимуму :(
Также встречаются 2 или 3 сцены где лев. и прав. ракурсы перепутаны.
эффектны подводные съемки, снимали явно не в той луже, где пришвартовалась RITA. ;) - очень прозрачная вода, и когда затрагиваются водоросли, то эффектно с них сбивается ил, что для 3d эффекта очень положительно.
главное все съемки натуральны, за исключением некоторых сцен на палубе, но фон тоже грамотно подставлен (скомбинирован) чтоб параллаксы не достигали запредельных значений.
всё хорошо!
достойные оценки!
продолжаем ждать наших, Советских стереофильмов в достойной оцифровке.