Торренты   
 
 

 

Президент Линкольн: Охотник на вампиров / Abraham Lincoln: Vampire Hunter (Тимур Бекмамбетов) [2012 г., BDRip 1080p, Full OverUnder]

Рейтинг 3D:
153 голосов
7.4
Рейтинг фильма:
154 голосов
6.8
 
Вы должны быть авторизированы,
чтобы ставить оценки


Президент Линкольн: Охотник на вампиров / Abraham Lincoln: Vampire Hunter
Год выпуска: 2012
Страна: США
Жанр: ужасы, фэнтези, боевик, триллер
Продолжительность: 01:45:00
Перевод: Профессиональный (полное дублирование)
Режиссер: Тимур Бекмамбетов
В ролях: енджамин Уокер, Доминик Купер, Энтони Маки, Мэри Элизабет Уинстэд, Руфус Сьюэлл, МартонЧокаш, Джимми Симпсон, Джозеф Моул, Робин МакЛиви, Эрин Уоссон
Описание: Сюжет фильма раскрывает тайную жизнь Величайшего Президента Америки Авраама Линкольна — любящего мужа и отца днем и беспощадного убийцу вампиров ночью. Армия кровопийц, которым он бросил вызов, растет с каждым днем. Сможет ли президент великой страны противостоять полчищам вампиров и спасти свою семью и народ от неминуемой гибели?..
Формат 3D: OverUnder
Видео: AVC, High@L5.0, 1920x1600, 23.976 fps,21,3 Мбит/сек
Аудио: Rus, DTS, 6 каналов, 755 Кбит/сек, 48,0 КГц
Аудио: Ukr, AC-3, 6 каналов, 448 Кбит/сек, 48,0 КГц
Аудио: Eng, DTS, 6 каналов, 1510 Кбит/сек, 48,0 КГц

Скриншоты




MediaInfo

Общее
Уникальный идентификатор : 237935928065365841222450880106241331596 (0xB300CAF9926A7213AB8B1AA85226118C)
Полное имя : E:\STEREO\Abraham Lincoln_Vampire Hunter.mkv
Формат : Matroska
Версия формата : Version 2
Размер файла : 18,0 Гбайт
Продолжительность : 1 ч. 45 м.
Общий поток : 24,5 Мбит/сек
Название фильма : Rip by DEag13
Дата кодирования : UTC 2012-10-13 13:47:31
Программа кодирования : mkvmerge v3.4.0 ('Rapunzel') сборка от May 15 2010 09:38:20
Библиотека кодирования : libebml v0.8.0 + libmatroska v0.9.0
Видео
Идентификатор : 1
Формат : AVC
Формат/Информация : Advanced Video Codec
Профиль формата : High@L5.0
Параметр CABAC формата : Да
Параметр ReFrames формата : 5 кадров
Идентификатор кодека : V_MPEG4/ISO/AVC
Продолжительность : 1 ч. 45 м.
Битрейт : 21,3 Мбит/сек
Ширина : 1920 пикселей
Высота : 1600 пикселей
Соотношение сторон : 1,200
Режим частоты кадров : Постоянный
Частота кадров : 23,976 кадра/сек
Цветовое пространство : YUV
Субдискретизация насыщенности : 4:2:0
Битовая глубина : 8 бит
Тип развёртки : Прогрессивная
Бит/(Пиксели*Кадры) : 0.290
Размер потока : 15,7 Гбайт (87%)
Библиотека кодирования : x264 core 120 r2145 748fe16
Настройки программы : cabac=1 / ref=5 / deblock=1:-3:-2 / analyse=0x3:0x113 / me=umh / subme=9 / psy=1 / psy_rd=1.00:0.00 / mixed_ref=1 / me_range=16 / chroma_me=1 / trellis=1 / 8x8dct=1 / cqm=0 / deadzone=21,11 / fast_pskip=1 / chroma_qp_offset=-2 / threads=9 / sliced_threads=0 / nr=0 / decimate=1 / interlaced=0 / bluray_compat=0 / constrained_intra=0 / bframes=6 / b_pyramid=0 / b_adapt=2 / b_bias=0 / direct=3 / weightb=1 / open_gop=0 / weightp=2 / keyint=250 / keyint_min=23 / scenecut=40 / intra_refresh=0 / rc_lookahead=60 / rc=crf / mbtree=1 / crf=18.0 / qcomp=0.60 / qpmin=1 / qpmax=61 / qpstep=4 / ip_ratio=1.40 / aq=1:1.00
Язык : English
Default : Нет
Forced : Нет
Аудио #1
Идентификатор : 2
Формат : DTS
Формат/Информация : Digital Theater Systems
Идентификатор кодека : A_DTS
Продолжительность : 1 ч. 45 м.
Вид битрейта : Постоянный
Битрейт : 755 Кбит/сек
Каналы : 6 каналов
Расположение каналов : Front: L C R, Side: L R, LFE
Частота : 48,0 КГц
Битовая глубина : 24 бит
Метод сжатия : С потерями
Размер потока : 567 Мбайт (3%)
Язык : Russian
Default : Да
Forced : Нет
Аудио #2
Идентификатор : 3
Формат : AC-3
Формат/Информация : Audio Coding 3
Расширение режима : CM (complete main)
Параметр Endianness формата : Big
Идентификатор кодека : A_AC3
Продолжительность : 1 ч. 45 м.
Вид битрейта : Постоянный
Битрейт : 448 Кбит/сек
Каналы : 6 каналов
Расположение каналов : Front: L C R, Side: L R, LFE
Частота : 48,0 КГц
Битовая глубина : 16 бит
Метод сжатия : С потерями
Размер потока : 336 Мбайт (2%)
Язык : Ukrainian
Default : Нет
Forced : Нет
Аудио #3
Идентификатор : 4
Формат : DTS
Формат/Информация : Digital Theater Systems
Идентификатор кодека : A_DTS
Продолжительность : 1 ч. 45 м.
Вид битрейта : Постоянный
Битрейт : 1510 Кбит/сек
Каналы : 6 каналов
Расположение каналов : Front: L C R, Side: L R, LFE
Частота : 48,0 КГц
Битовая глубина : 24 бит
Метод сжатия : С потерями
Размер потока : 1,11 Гбайт (6%)
Язык : English
Default : Нет
Forced : Нет
На встроенных ТВ-плейерах показывать НЕ будет!!!
Остальные раздачи этого фильма (5)
Благодарности релизеру (13)

Торрент:

Статус:

Размер:

Зарегистрирован   [ 2012-10-13 22:03 ]

проверено

18 GB

 
 Мнение о фильме (47)

1, 2, 3  След.






смотрели всей семьей,очень понравилось
 

Посмотрел,не ожидал что понравится.Название смущало. =) Мне всё таки кажется,что это фильм не совсем о вампирах...
 

Фильм очень хорош прям получился))))
 

Фильм очень понравился 3 очень качественное советую всем посмотреть!
 

Даааа!!!!!Замахнулся Бекмамбетов на американскую историю!Но фильм получился зрелищным,спец эффекты на высоте.3D качаственное!Смотрите не пожалеете. Dag 13 особое спасибо!
 

Фильм супер,Бекмамбетов молодец!!!
 
Алексей Буцков Профиль 31-Окт-2012 15:57

Фильм очень понравился,шедевр,очень классный!
Спасибо!
 

и мне тоже фильм понравился обемная картинка супер но у всех нет вылетов или только у меня ? смотрю на проекторе
 

понравилось. действительно, молодец Декмамбетов!
 

Стоит посмотреть! Фильм очень понравился - очень динамичный!
 

Конвертация становится всё лучше и это радует - возможно скоро увидим классику (типа Лоуренса Аравийского, Блэдраннера) в объёме...
 

В ближайшее время обещают Топган из старого...
 

фильм без сожаления, 3D норма. 4+ спасибо!!
 

Хороший фильм. Чувствуется рука Бикмамбетова
 

через 15 минут просмотра вылетает почему непонятно
 

Не показывает совсем на Samsung 40es6307,почему? заранее спасибо.
 

Подскажите, а на Samsung 55es8007U просмотреть возможно будет?Спасибо! Все просмотрелось отлично, достойный фильм!
 

Фильм ерунда полная! 3D 5+
 

классный фильм, сначала подумали что муть, но потом затянул-таки! Спасибо!
 
девочка на облаке Профиль 05-Фев-2013 18:09

Фильм супер! 3D отличное! Смотрел в очках 3D Vision на ПК
 

Страница 1 из 3

1, 2, 3  След.