Торренты   
 
 

 

Президент Линкольн: Охотник на вампиров / Abraham Lincoln: Vampire Hunter (Тимур Бекмамбетов) [2012 г., Anamorph OverUnder]

Рейтинг 3D:
153 голосов
7.4
Рейтинг фильма:
154 голосов
6.8
 
Вы должны быть авторизированы,
чтобы ставить оценки


Президент Линкольн: Охотник на вампиров / Abraham Lincoln: Vampire Hunter
Год выпуска: 2012
Страна: США, Abraham Productions, Базелевс Продакшн, Tim Burton Productions
Жанр: Ужасы, фэнтези, триллер
Продолжительность: 01:45:00
Перевод: Профессиональный (полное дублирование)
Режиссер: Тимур Бекмамбетов
В ролях: Бенджамин Уокер, Доминик Купер, Энтони Маки, Мэри Элизабет Уинстэд, Руфус Сьюэлл, Мартон Чокаш, Джимми Симпсон, Джозеф Моул, Робин МакЛиви, Эрин Уоссон, Джон Ротмен, Камерон М. Браун, Фрэнк Бреннан, Люкс Хэйни-Джардин, Кертис Харрис мл., Алекс Ломбард, Рэвин Стинсон, Жаклин Флеминг, Джон Нейслер, Аарон Тони, Миде Паттон, Тери Уайбл, Лоуренс Тернер, Джэйк Ла Ботц, Дэйн Родс, Эрл Мэддокс, Джон МакКоннелл, Бернард Хок, Ричи Монтгомери, Скотт Майкл Джеффресон, Пьер Пишон, Майя М. Маршалл, Алекс Булат, Джиллиан Басерсон, Кейси Бандик, Челси Брюленд, Эдвард Р. Кокс
Описание: Сюжет фильма раскрывает тайную жизнь Величайшего Президента Америки Авраама Линкольна — любящего мужа и отца днем и беспощадного убийцу вампиров ночью. Армия кровопийц, которым он бросил вызов, растет с каждым днем. Сможет ли президент великой страны противостоять полчищам вампиров и спасти свою семью и народ от неминуемой гибели?..
Формат 3D: Anamorph OverUnder
Видео: MPEG-4 AVC, 12.4 Мбит/с, 1920x1080, 23.976 кадра/с
Аудио: Русский (AC3, 6 ch, 448 Кбит/c), (DTS, 6 ch, 755 Кбит/c), украинский (AC3, 6 ch, 448 Кбит/c), английский (DTS, 6 ch, 1510 Кбит/c)

Media Info

General
Unique ID : 215907055743467458168829234739628506764 (0xA26E2FB6FF921AA4BEDE18F419D87E8C)
Complete name : M:\Кино3Д\Prezident.Linkoln.Ohotnik.na.vampirov.3D.2012.x264.BDRip.1080p.3DRip.by.kinozal.tv.mkv
Format : Matroska
Format version : Version 2
File size : 11.8 GiB
Duration : 1h 45mn
Overall bit rate : 16.0 Mbps
Movie name : 3DRip-by-kinozal.tv
Encoded date : UTC 2012-10-13 10:48:56
Writing application : mkvmerge v3.4.0 ('Rapunzel') сборка от May 15 2010 09:38:20
Writing library : libebml v0.8.0 + libmatroska v0.9.0
Video
ID : 1
Format : AVC
Format/Info : Advanced Video Codec
Format profile : High@L4.1
Format settings, CABAC : Yes
Format settings, ReFrames : 4 frames
Codec ID : V_MPEG4/ISO/AVC
Duration : 1h 45mn
Bit rate : 12.4 Mbps
Width : 1 920 pixels
Height : 1 080 pixels
Display aspect ratio : 16:9
Frame rate : 23.976 fps
Color space : YUV
Chroma subsampling : 4:2:0
Bit depth : 8 bits
Scan type : Progressive
Bits/(Pixel*Frame) : 0.249
Stream size : 9.07 GiB (77%)
Title : 3DRip-by-kinozal.tv
Writing library : x264 core
Default : Yes
Forced : No
Color primaries : BT.709-5, BT.1361, IEC 61966-2-4, SMPTE RP177
Transfer characteristics : BT.709-5, BT.1361
Matrix coefficients : BT.709-5, BT.1361, IEC 61966-2-4 709, SMPTE RP177
Audio #1
ID : 2
Format : AC-3
Format/Info : Audio Coding 3
Mode extension : CM (complete main)
Format settings, Endianness : Big
Codec ID : A_AC3
Duration : 1h 45mn
Bit rate mode : Constant
Bit rate : 640 Kbps
Channel(s) : 6 channels
Channel positions : Front: L C R, Side: L R, LFE
Sampling rate : 48.0 KHz
Bit depth : 16 bits
Compression mode : Lossy
Stream size : 481 MiB (4%)
Title : 3DRip-by-kinozal.tv
Language : Russian
Default : Yes
Forced : No
Audio #2
ID : 3
Format : DTS
Format/Info : Digital Theater Systems
Codec ID : A_DTS
Duration : 1h 45mn
Bit rate mode : Constant
Bit rate : 755 Kbps
Channel(s) : 6 channels
Channel positions : Front: L C R, Side: L R, LFE
Sampling rate : 48.0 KHz
Bit depth : 24 bits
Compression mode : Lossy
Stream size : 567 MiB (5%)
Title : 3DRip-by-kinozal.tv
Language : Russian
Default : No
Forced : No
Audio #3
ID : 4
Format : DTS
Format/Info : Digital Theater Systems
Codec ID : A_DTS
Duration : 1h 45mn
Bit rate mode : Constant
Bit rate : 1 510 Kbps
Channel(s) : 6 channels
Channel positions : Front: L C R, Side: L R, LFE
Sampling rate : 48.0 KHz
Bit depth : 24 bits
Compression mode : Lossy
Stream size : 1.11 GiB (9%)
Title : 3DRip-by-kinozal.tv
Language : English
Default : No
Forced : No
Audio #4
ID : 5
Format : AC-3
Format/Info : Audio Coding 3
Mode extension : CM (complete main)
Format settings, Endianness : Big
Codec ID : A_AC3
Duration : 1h 45mn
Bit rate mode : Constant
Bit rate : 448 Kbps
Channel(s) : 6 channels
Channel positions : Front: L C R, Side: L R, LFE
Sampling rate : 48.0 KHz
Bit depth : 16 bits
Compression mode : Lossy
Stream size : 336 MiB (3%)
Title : 3DRip-by-kinozal.tv
Language : Ukrainian
Default : No
Forced : No
Menu
00:00:00.000 : en:(01)00:00:00:000
00:03:48.478 : en:(02)00:03:48:478
00:06:52.578 : en:(03)00:06:52:578
00:11:06.457 : en:(04)00:11:06:457
00:15:10.534 : en:(05)00:15:10:534
00:20:07.789 : en:(06)00:20:07:789
00:26:46.354 : en:(07)00:26:46:354
00:29:22.135 : en:(08)00:29:22:135
00:34:13.009 : en:(09)00:34:13:009
00:39:04.884 : en:(10)00:39:04:884
00:42:42.810 : en:(11)00:42:42:810
00:47:25.467 : en:(12)00:47:25:467
00:52:50.917 : en:(13)00:52:50:917
01:00:39.302 : en:(14)01:00:39:302
01:05:16.621 : en:(15)01:05:16:621
01:10:33.604 : en:(16)01:10:33:604
01:13:21.939 : en:(17)01:13:21:939
01:16:41.555 : en:(18)01:16:41:555
01:18:46.972 : en:(19)01:18:46:972
01:22:41.373 : en:(20)01:22:41:373
01:25:28.123 : en:(21)01:25:28:123
01:29:00.835 : en:(22)01:29:00:835
01:32:23.496 : en:(23)01:32:23:496
01:37:55.119 : en:(24)01:37:55:119
01:45:00.294 : en:(25)01:45:00:294

Скриншоты



Анимированые скриншоты, открываются по клику ( для оценки 3Д )
Благодарности релизеру (24)

Торрент:

Статус:

Размер:

Зарегистрирован   [ 2012-10-13 22:49 ]

поглощено

11.76 GB

 
Комментарии:

1, 2, 3  След.






смотрели всей семьей,очень понравилось
 

Посмотрел,не ожидал что понравится.Название смущало. =) Мне всё таки кажется,что это фильм не совсем о вампирах...
 

Фильм очень хорош прям получился))))
 

Фильм очень понравился 3 очень качественное советую всем посмотреть!
 

Даааа!!!!!Замахнулся Бекмамбетов на американскую историю!Но фильм получился зрелищным,спец эффекты на высоте.3D качаственное!Смотрите не пожалеете. Dag 13 особое спасибо!
 

Фильм супер,Бекмамбетов молодец!!!
 
Алексей Буцков Профиль 31-Окт-2012 15:57

Фильм очень понравился,шедевр,очень классный!
Спасибо!
 

и мне тоже фильм понравился обемная картинка супер но у всех нет вылетов или только у меня ? смотрю на проекторе
 

понравилось. действительно, молодец Декмамбетов!
 

Стоит посмотреть! Фильм очень понравился - очень динамичный!
 

Конвертация становится всё лучше и это радует - возможно скоро увидим классику (типа Лоуренса Аравийского, Блэдраннера) в объёме...
 

В ближайшее время обещают Топган из старого...
 

фильм без сожаления, 3D норма. 4+ спасибо!!
 

Хороший фильм. Чувствуется рука Бикмамбетова
 

через 15 минут просмотра вылетает почему непонятно
 

Не показывает совсем на Samsung 40es6307,почему? заранее спасибо.
 

Подскажите, а на Samsung 55es8007U просмотреть возможно будет?Спасибо! Все просмотрелось отлично, достойный фильм!
 

Фильм ерунда полная! 3D 5+
 

классный фильм, сначала подумали что муть, но потом затянул-таки! Спасибо!
 
девочка на облаке Профиль 05-Фев-2013 18:09

Фильм супер! 3D отличное! Смотрел в очках 3D Vision на ПК
 

Страница 1 из 3

1, 2, 3  След.